Торрент файл
скачать торрент магнет ссылка Добавлен: 08 янв 2012, 11:45
Размер: 6.35 ГБ
Сидеров: 1
Личеров: 5
Автор

СообщениеДобавлено: 08 янв 2012, 11:45 

Не в сети
Зам. Админа
Аватара пользователя
Дата регистрации:
02 дек 2010, 12:39
Спасибо: 12461 / 214
Сообщения: 27968
Foreigner - Rockin' at the Ryman

Формат: BDRip, MKV, H.264, DTS
Песня: Rockin' at the Ryman
Жанр: Rock
Продолжительность: 01:46:32
Год выпуска: 2011
Видео: 1280 х 720 р, (16:9 , 4:2:0), AVC, at 29.970 fps, 5,35 Mbps,0.194 bits/pixel
Аудио1: 48 kHz, DTS, 2 ch (Front: L R), 1510Kbps
Аудио2: 48 kHz, DTS, 6 ch (Front: L C R, Side: L R, LFE),1510 Kbps

Доп. информация:

Tracklist:
=====================
    01. Double Vision
    02. Head Games
    03. Cold As Ice
    04. In Pieces
    05. Blue Morning, Blue Day
    06. Waiting For A Girl Like You
    07. When It Comes To Love
    08. Dirty White Boy
    09. Starrider
    10. Feels Like The First Time
    11. Urgent
    12. Keyboard / Drum solos
    13. Juke Box Hero
    14. Long, Long Way From Home
    15. I Want To Know What Love Is
    16. Hot Blooded

Состав группы:
===============
    Mick Jones - Lead Guitar, Keys and Backing Vocals
    Kelly Hansen - Vocals
    Jeff Pilson - Bass and Backing Vocals
    Tom Gimbel - Guitars, Saxophone & Backing Vocals
    Brian Tichy - Drums & Backing Vocals
    Michael Bluestein - Keyboards & Backing Vocals










    Общее
    Уникальный идентификатор: 110327103220062254301395151564029650172 (0x53003A2843F43522AA964999CFC164FC)
    Полное имя: F:\Tfile - rs Bandito music\Foreigner - Rockin' at the Ryman [2011, Rock, BDRip 720p].mkv
    Формат: Matroska
    Размер файла: 6,35 Гбайт
    Продолжительность: 1 ч. 46 м.
    Общий поток: 8537 Кбит/сек
    Программа кодирования: HandBrake rev3736
    Библиотека кодирования: libmkv 0.6.4.1

    Видео
    Идентификатор: 1
    Формат: AVC
    Формат/Информация: Advanced Video Codec
    Профиль формата: High@L4.1
    Параметр CABAC формата: Да
    Параметр ReFrames формата: 9 кадров
    Идентификатор кодека: V_MPEG4/ISO/AVC
    Продолжительность: 1 ч. 46 м.
    Битрейт: 5348 Кбит/сек
    Ширина: 1280 пикс.
    Высота: 720 пикс.
    Соотношение сторон: 16:9
    Частота кадров: 29,970 кадр/сек
    Цветовое пространство: YUV
    Подвыборка цветности: 4:2:0
    Битовая глубина: 8 бит
    Тип развёртки: Прогрессивная
    Бит/(Пиксели*Кадры): 0.194
    Размер потока: 3,98 Гбайт (63%)
    Библиотека кодирования: x264 core 112
    Настройки программы: cabac=1 / ref=9 / deblock=1:0:0 / analyse=0x3:0x113 / me=umh / subme=9 / psy=1 / psy_rd=1.00:0.00 / mixed_ref=1 / me_range=32 / chroma_me=1 / trellis=2 / 8x8dct=1 / cqm=0 / deadzone=21,11 / fast_pskip=1 / chroma_qp_offset=-2 / threads=6 / sliced_threads=0 / nr=0 / decimate=1 / interlaced=0 / constrained_intra=0 / bframes=9 / b_pyramid=2 / b_adapt=2 / b_bias=0 / direct=3 / weightb=1 / open_gop=0 / weightp=2 / keyint=300 / keyint_min=29 / scenecut=40 / intra_refresh=0 / rc_lookahead=40 / rc=crf / mbtree=1 / crf=20.0 / qcomp=0.60 / qpmin=3 / qpmax=51 / qpstep=4 / ip_ratio=1.40 / aq=1:1.00
    Язык: English
    Основные цвета: BT.709-5, BT.1361, IEC 61966-2-4, SMPTE RP177
    Характеристики трансфера: BT.709-5, BT.1361
    Коэффициенты матрицы: BT.709-5, BT.1361, IEC 61966-2-4 709, SMPTE RP177

    Аудио #1
    Идентификатор: 2
    Формат: DTS
    Формат/Информация: Digital Theater Systems
    Идентификатор кодека: A_DTS
    Продолжительность: 1 ч. 46 м.
    Вид битрейта: Постоянный
    Битрейт: 1510 Кбит/сек
    Каналы: 2 канала
    Расположение каналов: Front: L R
    Частота: 48,0 КГц
    Битовая глубина: 24 бит
    Метод сжатия: С потерями
    Размер потока: 1,12 Гбайт (18%)

    Аудио #2
    Идентификатор: 3
    Формат: DTS
    Формат/Информация: Digital Theater Systems
    Идентификатор кодека: A_DTS
    Продолжительность: 1 ч. 46 м.
    Вид битрейта: Постоянный
    Битрейт: 1510 Кбит/сек
    Каналы: 6 каналов
    Расположение каналов: Front: L C R, Side: L R, LFE
    Частота: 48,0 КГц
    Битовая глубина: 24 бит
    Метод сжатия: С потерями
    Размер потока: 1,12 Гбайт (18%)

    Меню
    00:00:00.000: Double Vision
    00:03:43.923: Head Games
    00:09:34.540: Cold As Ice
    00:15:17.917: In Pieces
    00:20:05.871: Blue Morning, Blue Day
    00:23:29.775: Waiting For A Girl Like You
    00:29:25.263: When It Comes To Love
    00:34:15.219: Dirty White Boy
    00:39:30.101: Starrider
    00:49:28.765: Feels Like The First Time
    00:54:52.289: Urgent
    01:02:45.161: Keyboard / Drum solos
    01:13:16.825: Juke Box Hero
    01:25:32.427: Long, Long Way From Home
    01:29:31.566: I Want To Know What Love Is
    01:38:15.222: Hot Blooded
    01:44:59.960: Credits



Release Group:
Поделиться:




реклама партнёра


Вернуться к началу
 Профиль  
 
   Похожие торренты   Автор   Торрент   Размер 
В этой теме нет новых непрочитанных сообщений. Foreigner - Alive & Rockin` [2012, Glam Rock, AOR, MP3]

PriZraK

0 | 1

135.71 МБ

В этой теме нет новых непрочитанных сообщений. Foreigner – Feels Like The First Time [2011, Rock, Hard Rock, MP3]

PriZraK

0 | 1

208.66 МБ

В этой теме нет новых непрочитанных сообщений. Bruce Turgon (ex Foreigner) – Outside Looking In [2005, Rock, Hard Rock, MP3]

PriZraK

0 | 2

115.2 МБ

В этой теме нет новых непрочитанных сообщений. VA-Rockin' 70s [2004, Rock, Hard Rock, MP3]

PriZraK

0 | 1

383.97 МБ

В этой теме нет новых непрочитанных сообщений. Keep Rockin' - Into The Unknown [2013, Progressive Rock, MP3]

PriZraK

0 | 1

126.6 МБ

В этой теме нет новых непрочитанных сообщений. The Lemonheads - Rockin' The Shell [2013, Alt. Rock, MP3]

PriZraK

0 | 1

128.54 МБ

В этой теме нет новых непрочитанных сообщений. Foreigner - The Best Ballads (2CD) [1995 - 1996, Rock, MP3]

PriZraK

0 | 1

332.66 МБ


Начать новую тему Ответить на тему  [ 1 сообщение ] 




Для Мосгорсуда, Роскомнадзора и рекламодателей:: mosgorsud-torrent[собачка]yandex.ru