Торрент файл
скачать торрент магнет ссылка Добавлен: 08 янв 2012, 11:44
Размер: 2.91 ГБ
Сидеров: 1
Личеров: 9
Автор

СообщениеДобавлено: 08 янв 2012, 11:44 

Не в сети
Зам. Админа
Аватара пользователя
Дата регистрации:
02 дек 2010, 12:39
Спасибо: 12579 / 214
Сообщения: 28057
VA - Лучшее от Ello Vol.4

Формат: DVD5, DVD Video, MPEG2, AC3
Песня: Лучшее от Ello Vol.4
Жанр: Pop, R'n'B
Продолжительность: 02:01:59
Год выпуска: 2011

Видео: 720x576 (PAL 4:3), 25 fps, MPEG-2, ~3534 Mbps avg, 0.341 bit/pixel
Аудио: 48 kHz, AC-3, 2 ch, 192.00 kbps avg

Доп. информация: Материал взят с канала Ello - который представляет в свою очередь новинки как российской так и зарубежной попсы. Отличный профессиональный музыкальный канал и даже стоп кадры на всех видео выставлены очень правильно. Здесь можно увидеть как звезд так и совершенно молодых исполнителей. Предлагаю Вашему вниманию четвертую подбороку с этого канала.

01 Банд'Эрос - Не зарекайся
02 Фристайл - Фонари
03 Александр Яковлев - Знаешь
04 Timati feat. P. Diddy - I'm on You
05 Соня- Дождь
06 Г. Лепс и И. Аллегрова - Я тебе не верю
07 Вера Брежнева - Нирвана
08 Ева Польна - Не расставаясь
09 Чи-Ли и Гоша Куценко - Сказки
10 Слава - Классный
11 Д. Султан - Найди меня
12 LOBODA - Спасибо
13 Monster DJs и Ж. Любич - Без тебя
14 Dino MC47 - Гражданин Р
15 Валерий Меладзе - Вопреки
16 Irene Nelson - Sunrise
17 Л. Арзамасова - Я твое солнце
18 Иракли ft. Dino MC47 - Сделай шаг
19 Согдиана - С Тобой или Без Тебя
20 OPIUM project - Накричи на меня
21 Нюша - Вою на луну
22 Uma2rmaН - Не позвонишь
23 Поющие Трусы - Интим не предлагать
24 Группа 23-45 feat. 5ivesta - Любовь без обмана
25 SEREBRO - Не время
26 МС Клава feat. Коротышка К - Математика
27 Герои - Мое маленькое глупое сердце
28 Reflex и Ирина Нельсон - Селяви
29 Жанна Фриске - Я была
30 Виа Гра feat.TNMK - Нет ничего хуже
31 Princessa Avenue - СлезаКоличество видео
32 SKAMC group - Добрая песня

Общее
Формат: MPEG-PS
Общий поток: 3802 Кбит/сек

Видео
Идентификатор: 224 (0xE0)
Формат: MPEG Video
Версия формата: Version 2
Профиль формата: Main@Main
Параметр BVOP формата: Да
Параметр матрицы формата: По умолчанию
Параметры GOP формата: M=3, N=13
Вид битрейта: Переменный
Битрейт: 3534 Кбит/сек
Номинальный битрейт: 9008 Кбит/сек
Ширина: 720 пикс.
Высота: 576 пикс.
Соотношение сторон: 4:3
Частота кадров: 25,000 кадр/сек
Стандарт вещания: PAL
Цветовое пространство: YUV
Подвыборка цветности: 4:2:0
Битовая глубина: 8 бит
Тип развёртки: Прогрессивная
Метод сжатия: С потерями
Бит/(Пиксели*Кадры): 0.341
Размер потока: 952 Мбайт (93%)

Аудио
Идентификатор: 128 (0x80)
Формат: AC-3
Формат/Информация: Audio Coding 3
Расширение режима: CM (complete main)
Вид битрейта: Постоянный
Битрейт: 192 Кбит/сек
Канал(ы): 2 канала(ов)
Расположение каналов: Front: L R
Частота: 48,0 КГц
Битовая глубина: 16 бит
Метод сжатия: С потерями
Размер потока: 51,7 Мбайт (5%)












Поделиться:




реклама партнёра


Вернуться к началу
 Профиль  
 
   Похожие торренты   Автор   Торрент   Размер 
В этой теме нет новых непрочитанных сообщений. Военные игры / War Games: At the End of the Day [Триллер, боевик, ужасы, 2011] DVD5, Mvo

salma3

15 | 11

4.35 ГБ

В этой теме нет новых непрочитанных сообщений. 1911 / Падение последней империи / Xinhai geming [боевик, драма, приключения, военный, история, 2011] DVD5, Mvo+Sub Лицензия

salma3

7 | 2

4.36 ГБ

В этой теме нет новых непрочитанных сообщений. Из 13 в 30 / 13 Going on 30 [Комедия, мелодрама, 2004] DVD5, Mvo

salma3

7 | 0

4.33 ГБ

В этой теме нет новых непрочитанных сообщений. 22 минуты [боевик, 2014] DVD5

Dracon

39 | 8

4.37 ГБ

В этой теме нет новых непрочитанных сообщений. Бармен ( комедия, фэнтези, 2015) DVD5

marya111

0 | 4

4.37 ГБ

В этой теме нет новых непрочитанных сообщений. Бродяга / The Vagrant [триллер, 1992] DVD5, Avo

salma3

0 | 3

3.85 ГБ

В этой теме нет новых непрочитанных сообщений. Самоволка-72 / AWOL-72 [Триллер, 2015] DVD5, Avo+Sub

salma3

654 | 252

4.36 ГБ


Начать новую тему Ответить на тему  [ 1 сообщение ] 




Для Мосгорсуда, Роскомнадзора и рекламодателей:: mosgorsud-torrent[собачка]yandex.ru