Торрент файл
скачать торрент магнет ссылка Добавлен: 08 янв 2012, 11:42
Размер: 7.27 ГБ
Сидеров: 5
Личеров: 10
Автор

СообщениеДобавлено: 08 янв 2012, 11:42 

Не в сети
Зам. Админа
Аватара пользователя
Дата регистрации:
02 дек 2010, 12:39
Спасибо: 12461 / 214
Сообщения: 27968
Apocalyptica - Live

Формат: DVD 9, DVD Video, MPEG 2, AC 3, PCM
Песня: Live
Жанр: Symphonic Metal
Продолжительность: 02:00:00
Год выпуска: 2001
Видео: MPEG 2 VIDEO, 720*576( PAL 4:3), 25.00 fps, 6800 kbps avg, 0. 656 bit/pixel
Аудио #1: 48,0 khz, AC 3, 6 ch, 448 kbps avg
Аудио #2: 48,0 khz, PCM, 2 ch, 1536 kbps avg
Доп. информация:DVD включает: Концертное выступление на OpenAir, Gambel - Швейцария, 19 августа 2001 года. Видеоклипы, биографию, дискографию, фотогалерею,бонус.
    Состав:Eicca Toppinen - cello
    Antero Manninen - cello
    Paavo Lotjonen - cello
    Max Lilja - cello
    Треклист концерта:01.For Whom The Bell Tolls
    02.M.B.
    03.Creeping Death
    04.Nothing Else Matters
    05.Harmageddon
    06.Fight Fire With Fire
    07.One
    08.Pray
    09.Struggle
    10.Romance
    11.Refuse/Resist
    12.The Unforgiven
    13.Inquisition Symphony
    14.Master Of Puppets
    15.Path
    16.Enter Sandman
    17.Hall Of The Mountain King
    Видеоклипы:01.Path
    02.Path Vol. II
    03.Harmageddon
    04.Nothing Else Matters
    05.Enter Sandman
    06.The Unforgiven
    Бонус:Little Drummerboy (Video)
Title: Apocalyptica - Live
Size: 7.27 Gb ( 7 626 680,00 KBytes ) - DVD-9
Enabled regions: 1, 2, 3, 4, 5, 6, 7, 8

VTS_01 :
Play Length: 01:27:25+00:00:00
Video: PAL 4:3 (720x576) VBR
Audio:
Not specified, LPCM, Delay = 120 mSec
Not specified, AC3, 3/2 (L,C,R,SL,SR)+LFE ch, 448 kbps, Delay 120 mSec

Subtitles:
Not specified

VTS_02 :
Play Length: 00:00:02+00:00:01+00:00:01+00:05:00
Video: PAL 4:3 (720x576) VBR
Audio:
Not specified (LinearPCM, 2 ch)
Subtitles:
Not specified

VTS_03 :
Play Length: 00:21:42
Video: PAL 4:3 (720x576) VBR
Audio:
Not specified (LinearPCM, 2 ch)

VTS_04 :
Play Length: 00:00:32
Video: PAL 4:3 (720x576) VBR
Audio:
Not specified (Dolby AC3, 2 ch)

* Menus Information *

VIDEO_TS Menu
Video:
PAL 4:3 (720x576) VBR
English Language Unit :
Title Menu

VTS_01 Menu
Video:
PAL 4:3 (720x576) VBR
Audio:
Not specified (Dolby AC3, 2 ch)
English Language Unit :
Root Menu
Subpicture Menu

VTS_02 Menu
Video:
PAL 4:3 (720x576) VBR
Audio:
Not specified (Dolby AC3, 2 ch)
English Language Unit :
Root Menu

VTS_03 Menu
Video:
PAL 4:3 (720x576) VBR
English Language Unit :
Root Menu

VTS_04 Menu
Video:
NTSC 4:3 (720x480) VBR
Auto Pan&Scan, Auto Letterboxed
Language Unit :
Chapter (PTT) Menu
Общее
Полное имя: D:\Video\Apocalyptica - Live\VIDEO_TS\VTS_01_1.VOB
Формат: MPEG-PS
Размер файла: 1024 Мбайт
Продолжительность: 16 м.
Общий поток: 8926 Кбит/сек

Видео
Идентификатор: 224 (0xE0)
Формат: MPEG Video
Версия формата: Version 2
Профиль формата: Main@Main
Параметр BVOP формата: Да
Параметр матрицы формата: По умолчанию
Продолжительность: 16 м.
Вид битрейта: Постоянный
Битрейт: 6800 Кбит/сек
Ширина: 720 пикс.
Высота: 576 пикс.
Соотношение сторон: 4:3
Частота кадров: 25,000 кадр/сек
Стандарт вещания: PAL
Цветовое пространство: YUV
Подвыборка цветности: 4:2:0
Битовая глубина: 8 бит
Тип развёртки: Чересстрочная
Порядок развёртки: Верхнее поле первое
Метод сжатия: С потерями
Бит/(Пиксели*Кадры): 0.656
Размер потока: 776 Мбайт (76%)

Аудио #1
Идентификатор: 129 (0x81)
Формат: AC-3
Формат/Информация: Audio Coding 3
Расширение режима: CM (complete main)
Продолжительность: 16 м.
Вид битрейта: Постоянный
Битрейт: 448 Кбит/сек
Канал(ы): 6 канала(ов)
Расположение каналов: Front: L C R, Side: L R, LFE
Частота: 48,0 КГц
Битовая глубина: 16 бит
Метод сжатия: С потерями
Задержка видео: 120 мс.
Размер потока: 51,4 Мбайт (5%)

Аудио #2
Идентификатор: 160 (0xA0)
Формат: PCM
Параметр Endianness формата: Big
Параметр Sign формата: Signed
Режим смешивания: DVD-Video
Продолжительность: 16 м.
Вид битрейта: Постоянный
Битрейт: 1536 Кбит/сек
Канал(ы): 2 канала(ов)
Расположение каналов: Front: L R
Частота: 48,0 КГц
Битовая глубина: 16 бит
Задержка видео: 120 мс.
Размер потока: 176 Мбайт (17%)

Меню













[b]Поделиться:




реклама партнёра


Вернуться к началу
 Профиль  
 
   Похожие торренты   Автор   Торрент   Размер 
В этой теме нет новых непрочитанных сообщений. Apocalyptica - Wagner Reloaded (Live in Leipzig) [2013, Cello Metal, Symphonic, MP3]

PriZraK

0 | 1

129.12 МБ

В этой теме нет новых непрочитанных сообщений. Rhapsody Of Fire - Live From Chaos To Eternity (Live, 2CD) [2013, Symphonic Power Metal, MP3]

PriZraK

0 | 1

251.92 МБ

В этой теме нет новых непрочитанных сообщений. Within Temptation: Let Us Burn - Elements & Hydra Live In Concert [Symphonic Metal, Gothic Rock, Power Metal, 2014] BDRemux 1080i

Dracon

32 | 8

20.63 ГБ

В этой теме нет новых непрочитанных сообщений. Tarja Turunen - Act I (Live) [2012, Symphonic Metal, MP3]

PriZraK

2 | 1

285.16 МБ

В этой теме нет новых непрочитанных сообщений. Nightwish - Showtime, Storytime (2CD, Live) [2013, Symphonic Power Metal, MP3]

PriZraK

29 | 3

220.46 МБ

В этой теме нет новых непрочитанных сообщений. Epica - Retrospect: 10th Anniversary (Live, 3CD) [2013, Symphonic Power Metal, MP3]

PriZraK

0 | 1

382 МБ

В этой теме нет новых непрочитанных сообщений. G.L.A.S.S. - Giving Live A Secret Story [2013, Symphonic Gothic Metal, Female Vocal, MP3]

PriZraK

0 | 1

105.15 МБ


Начать новую тему Ответить на тему  [ 1 сообщение ] 




Для Мосгорсуда, Роскомнадзора и рекламодателей:: mosgorsud-torrent[собачка]yandex.ru