Торрент файл
скачать торрент магнет ссылка Добавлен: 08 янв 2012, 11:38
Размер: 7.72 ГБ
Сидеров: 2
Личеров: 5
Автор

СообщениеДобавлено: 08 янв 2012, 11:38 

Не в сети
Зам. Админа
Аватара пользователя
Дата регистрации:
02 дек 2010, 12:39
Спасибо: 12458 / 214
Сообщения: 27968
Mylene Farmer - Mylenium Tour

Формат: DVD 9, DVD Video, MPEG 2, AC 3
Песня: Mylenium Tour
Жанр: Pop
Продолжительность: 02:40:00
Год выпуска: 2000
Видео: MPEG 2 VIDEO, 720*576( PAL 16:9), 25.00 fps, 8618 kbps avg, 0, 831 bit/pixel
Аудио #1: 48,0 khz, AC 3, 2 ch, 448 kbps avg
Аудио #2: 48.0 khz, AC 3, 6 ch, 448 kbps avg
Доп. информация: DVD включает: концерт, состоявшийся 17 ноября 1999 года в Лилле, Франция. Съёмки за кулисами: Made in USA, Band & Dancers, 326 seconds, Vous.., Made in Russia. Дополнительно: Multi - Angles, Illustrations.
    Треклист: 1. L'amour naissant
    2. L'Ame-Stram-Gram
    3. Beyond my control
    4. Rever
    5. Il n'y a pas d'ailleurs
    6. Mylene is calling
    7. Optimistique-moe
    8. Medley
    9. Regrets
    10. Desenchantee
    11. Mefie-toi
    12. Dessine-moi un mouton
    13. California
    14. Pes le temps de vivre
    15. Je te rends ton amour
    16. Souvienns-toi du jour
    17. Dernier sourire
    18. Innamoramento
Title: Mylene Farmer - Mylenium Tour
Size: 7.72 Gb ( 8 096 530,00 KBytes ) - DVD-9
Enabled regions: 1, 2, 3, 4, 5, 6, 8

VTS_01 :
Play Length: 00:01:00+00:03:42+00:05:32+00:04:52
Video: PAL 4:3 (720x576) VBR
Audio:
Francais (Dolby AC3, 2 ch)

VTS_02 :
Play Length: 01:58:12
Video: PAL 16:9 (720x576) VBR, Auto Letterboxed
Audio:
Francais, AC3, 2/0 (L,R) ch, 448 kbps, Delay 0 mSec
Francais, AC3, 3/2 (L,C,R,SL,SR)+LFE ch, 448 kbps, Delay 0 mSec

Subtitles:
Not specified

VTS_03 :
Play Length: 00:01:00+00:08:51+00:08:10
Video: PAL 4:3 (720x576) VBR
Audio:
Francais (Dolby AC3, 2 ch)

* Menus Information *

VIDEO_TS Menu
Video:
PAL 16:9 (720x576) VBR
Auto Letterboxed
Audio:
Not specified (Dolby AC3, 2 ch)
Francais Language Unit :
Title Menu

VTS_01 Menu
Video:
NTSC 4:3 (720x480) VBR
Auto Pan&Scan, Auto Letterboxed
Francais Language Unit :
Root Menu
Angle menu

VTS_02 Menu
Video:
PAL 16:9 (720x576) VBR
Auto Letterboxed
Audio:
Not specified (Dolby AC3, 2 ch)
Francais Language Unit :
Root Menu
Subpicture Menu
Audio Menu
Angle menu
Chapter (PTT) Menu

VTS_03 Menu
Video:
NTSC 4:3 (720x480) VBR
Auto Pan&Scan, Auto Letterboxed
Francais Language Unit :
Root Menu
Angle menu
Общее
Полное имя: D:\Video\Mylene Farmer - Mylenium Tour\VIDEO_TS\VTS_02_2.VOB
Формат: MPEG-PS
Размер файла: 1024 Мбайт
Продолжительность: 14 м.
Общий поток: 9707 Кбит/сек

Видео
Идентификатор: 224 (0xE0)
Формат: MPEG Video
Версия формата: Version 2
Профиль формата: Main@Main
Параметр BVOP формата: Да
Параметр матрицы формата: По умолчанию
Параметры GOP формата: M=3, N=12
Продолжительность: 14 м.
Вид битрейта: Переменный
Битрейт: 8618 Кбит/сек
Номинальный битрейт: 6500 Кбит/сек
Ширина: 720 пикс.
Высота: 576 пикс.
Соотношение сторон: 16:9
Частота кадров: 25,000 кадр/сек
Стандарт вещания: PAL
Цветовое пространство: YUV
Подвыборка цветности: 4:2:0
Битовая глубина: 8 бит
Тип развёртки: Чересстрочная
Порядок развёртки: Верхнее поле первое
Метод сжатия: С потерями
Бит/(Пиксели*Кадры): 0.831
Размер потока: 909 Мбайт (89%)

Аудио #1
Идентификатор: 128 (0x80)
Формат: AC-3
Формат/Информация: Audio Coding 3
Расширение режима: CM (complete main)
Продолжительность: 14 м.
Вид битрейта: Постоянный
Битрейт: 448 Кбит/сек
Канал(ы): 2 канала(ов)
Расположение каналов: Front: L R
Частота: 48,0 КГц
Битовая глубина: 16 бит
Метод сжатия: С потерями
Задержка видео: -208 мс.
Размер потока: 47,2 Мбайт (5%)

Аудио #2
Идентификатор: 129 (0x81)
Формат: AC-3
Формат/Информация: Audio Coding 3
Расширение режима: CM (complete main)
Продолжительность: 14 м.
Вид битрейта: Постоянный
Битрейт: 448 Кбит/сек
Канал(ы): 6 канала(ов)
Расположение каналов: Front: L C R, Side: L R, LFE
Частота: 48,0 КГц
Битовая глубина: 16 бит
Метод сжатия: С потерями
Задержка видео: -208 мс.
Размер потока: 47,2 Мбайт (5%)

Меню










[b]Поделиться:




реклама партнёра


Вернуться к началу
 Профиль  
 
   Похожие торренты   Автор   Торрент   Размер 
В этой теме нет новых непрочитанных сообщений. Professional Farmer 2017 [Simulator, 2016] [ RePack]

Sykre

0 | 0

1.2 ГБ

В этой теме нет новых непрочитанных сообщений. Дракула 2000 / Dracula 2000 [ужасы, фэнтези, боевик, триллер, 2000] BDRip 720p, Dub+Sub

salma3

101 | 8

3.83 ГБ

В этой теме нет новых непрочитанных сообщений. Дракула 2000 / Dracula 2000 [ужасы, фэнтези, боевик, триллер, 2000] BDRip 1080p, Dub+Sub

salma3

54 | 14

9.81 ГБ

В этой теме нет новых непрочитанных сообщений. [JacquieetMichelTV.net / Indecentes-Voisines.com] Zoe, Odessa, Mylene (La folie au Jacquie et Michel Store !) [26-04-2015 г., Group, Teen, Milf, Big Tits, Ebony, Group, Anal, French, SiteRip 360p]

friizze

5 | 2

611.55 МБ

В этой теме нет новых непрочитанных сообщений. Goblin - Tour (EP) [15.10.2013, Progressive Rock, MP3]

PriZraK

0 | 1

44.48 МБ

В этой теме нет новых непрочитанных сообщений. Rush - Clockwork Angels Tour (3CD) [2013, Progressive Rock, MP3]

PriZraK

2 | 1

424.75 МБ

В этой теме нет новых непрочитанных сообщений. Madonna - The Re-Invention World tour (live) [Поп, 2010] DVDRip

salma3

3 | 1

2.05 ГБ


Начать новую тему Ответить на тему  [ 1 сообщение ] 




Для Мосгорсуда, Роскомнадзора и рекламодателей:: mosgorsud-torrent[собачка]yandex.ru