Торрент файл
скачать торрент магнет ссылка Добавлен: 08 янв 2012, 11:38
Размер: 3.54 ГБ
Сидеров: 1
Личеров: 7
Автор

СообщениеДобавлено: 08 янв 2012, 11:38 

Не в сети
Зам. Админа
Аватара пользователя
Дата регистрации:
02 дек 2010, 12:39
Спасибо: 12623 / 214
Сообщения: 28012
Venom - Live In London

Формат: DVD 5, DVD Video, MPEG 2, AC 3
Песня: Live In London
Жанр: Black Metal
Продолжительность: 00:58:01
Год выпуска: 2004
Видео: MPEG 2 VIDEO, 720*576( PAL 4:3), 25.00 fps, 6500 kbps avg, 0.627 bit/pixel
Аудио #1: 48,0 khz, AC 3, 2 ch, 448 kbps avg
Аудио #2: 48.0 khz, AC 3, 6 ch, 448 kbps avg
Доп. информация: Концерт, состоявшийся в Hammersmith Odeon, Лондон, 1985 год. Дополнительно трейлеры: Warlock, Lynyrd Skynyrd, The Sweet, Alice Cooper.
    Состав:
Conrad "Cronos" Lant - Vocals & Bass
Jeff "Mantas" Dunn - Guitars
Tony "Abaddon" Bray - Drums
    Треклист:
1. Intro / Too Loud For The Crowd
2. Black Metal
3. Countess Bathory
4. The Seven Gates Of Hell
5. Bass Solo (Cronos)
6. Buried Alive
7. Don't Burn The Witch
8. In Nomine Satanas
9. Welcome To Hell
10. Warhead
11. Guitar Solo (Mantas)
12. Schitzo
13. Satanarchist
14. Bloodlust
15. Witching Hour
Title: Venom - Live In London
Size: 3.54 Gb ( 3 714 976,00 KBytes ) - DVD-5
Enabled regions: 1, 2, 3, 4, 5, 6, 8

VTS_01 :
Play Length: 00:00:20
Video: PAL 4:3 (720x576) VBR
Audio:
Not specified (Dolby AC3, 2 ch)

VTS_02 :
Play Length: 00:58:01
Video: PAL 4:3 (720x576) VBR
Audio:
Not specified, AC3, 2/0 (L,R) ch, 448 kbps, Delay 0 mSec
Not specified, AC3, 3/2 (L,C,R,SL,SR)+LFE ch, 448 kbps, Delay 0 mSec

VTS_03 :
Play Length: 00:02:17
Video: PAL 4:3 (720x576) VBR
Audio:
Not specified (Dolby AC3, 2 ch)

VTS_04 :
Play Length: 00:03:00
Video: PAL 4:3 (720x576) VBR
Audio:
Not specified (Dolby AC3, 6 ch)

VTS_05 :
Play Length: 00:02:46
Video: PAL 4:3 (720x576) VBR
Audio:
Not specified (Dolby AC3, 6 ch)

VTS_06 :
Play Length: 00:02:47
Video: PAL 4:3 (720x576) VBR
Audio:
Not specified (Dolby AC3, 2 ch)

* Menus Information *

VIDEO_TS Menu
Video:
PAL 4:3 (720x576) VBR
English Language Unit :
Title Menu

VTS_01 Menu
Video:
PAL 4:3 (720x576) VBR
Audio:
Not specified (Dolby AC3, 2 ch)
English Language Unit :
Root Menu

VTS_02 Menu
Video:
PAL 4:3 (720x576) VBR
English Language Unit :
Root Menu

VTS_03 Menu
Video:
PAL 4:3 (720x576) VBR
English Language Unit :
Root Menu

VTS_04 Menu
Video:
PAL 4:3 (720x576) VBR
English Language Unit :
Root Menu

VTS_05 Menu
Video:
PAL 4:3 (720x576) VBR
English Language Unit :
Root Menu

VTS_06 Menu
Video:
PAL 4:3 (720x576) VBR
English Language Unit :
Root Menu
Общее
Полное имя: D:\Video\Venom - Live In London\VIDEO_TS\VTS_02_1.VOB
Формат: MPEG-PS
Размер файла: 1024 Мбайт
Продолжительность: 18 м.
Общий поток: 7545 Кбит/сек

Видео
Идентификатор: 224 (0xE0)
Формат: MPEG Video
Версия формата: Version 2
Профиль формата: Main@Main
Параметр BVOP формата: Да
Параметр матрицы формата: По умолчанию
Параметры GOP формата: M=3, N=7
Продолжительность: 18 м.
Вид битрейта: Постоянный
Битрейт: 6500 Кбит/сек
Ширина: 720 пикс.
Высота: 576 пикс.
Соотношение сторон: 4:3
Частота кадров: 25,000 кадр/сек
Стандарт вещания: PAL
Цветовое пространство: YUV
Подвыборка цветности: 4:2:0
Битовая глубина: 8 бит
Тип развёртки: Чересстрочная
Порядок развёртки: Верхнее поле первое
Метод сжатия: С потерями
Бит/(Пиксели*Кадры): 0.627
Размер потока: 882 Мбайт (86%)

Аудио #1
Идентификатор: 128 (0x80)
Формат: AC-3
Формат/Информация: Audio Coding 3
Расширение режима: CM (complete main)
Продолжительность: 18 м.
Вид битрейта: Постоянный
Битрейт: 448 Кбит/сек
Канал(ы): 2 канала(ов)
Расположение каналов: Front: L R
Частота: 48,0 КГц
Битовая глубина: 16 бит
Метод сжатия: С потерями
Задержка видео: -80 мс.
Размер потока: 60,8 Мбайт (6%)

Аудио #2
Идентификатор: 129 (0x81)
Формат: AC-3
Формат/Информация: Audio Coding 3
Расширение режима: CM (complete main)
Продолжительность: 18 м.
Вид битрейта: Постоянный
Битрейт: 448 Кбит/сек
Канал(ы): 6 канала(ов)
Расположение каналов: Front: L C R, Side: L R, LFE
Частота: 48,0 КГц
Битовая глубина: 16 бит
Метод сжатия: С потерями
Задержка видео: -80 мс.
Размер потока: 60,8 Мбайт (6%)

Меню









[b]Поделиться:




реклама партнёра


Вернуться к началу
 Профиль  
 
   Похожие торренты   Автор   Торрент   Размер 
В этой теме нет новых непрочитанных сообщений. [CherryPimps.com / WildOnCam.com] Rina Ellis (Giving Rina Her Facial LIVE)[2017 г., Black Hair, Blowjob, Cow Girl, Doggy Style, Facials, Feet, Footjob, Hardcore, Live Show Archives, Petite, Piercings, Real Tits. All Sex, 1080p]

salma3

5 | 2

8.42 ГБ

В этой теме нет новых непрочитанных сообщений. [HardX.com] London Keyes (All Anal For London / 12.05.17.) [2017, Gonzo, Anal, 1080p]

salma3

14 | 5

1.69 ГБ

В этой теме нет новых непрочитанных сообщений. [HardX.com] London Keyes (All Anal For London / 12.05.17.) [2017, Gonzo, Anal, 400p]

salma3

38 | 13

329.65 МБ

В этой теме нет новых непрочитанных сообщений. London Keyes / London Keyes Gets Deep Anal (2015) HD 720p

Dile-1

22 | 77

373.99 МБ

В этой теме нет новых непрочитанных сообщений. [WildOnCam.com / CherryPimps.com] Monica Asis (Monica is Ready To Please LIVE) [2017-10-13 г., Big Tits, Big White Dick, Black Hair, Blowjob, Cow Girl, Doggy Style, Hardcore, Latina, Live Show, Real Tits, Reverse Cow Girl, Shaved, Tattoos,

salma3

8 | 3

8.32 ГБ

В этой теме нет новых непрочитанных сообщений. [WildOnCam.com / CherryPimps.com] Honey Gold (Hitting The Jackpot With Honey LIVE / 11.08.2017) [2017 г., Asian,Big Tits,Black Hair,Cow Girl,Doggy Style,Ebony,Hardcore,Interracial,Lingerie,Live Show Archives,Panties,Reverse Cow Girl,Shaved,

salma3

5 | 2

8.43 ГБ

В этой теме нет новых непрочитанных сообщений. [AmateurAllure.com] Layla London (Layla London POV, Busty Babe Swallows TWO Big Loads in Stunning 4K / 2017-09-08) [2017 г., Teen, Deep Throat, Blowjob, Handjob, Swallow, POV, Hardcore, All Sex, 2160p]

salma3

15 | 5

4.16 ГБ


Начать новую тему Ответить на тему  [ 1 сообщение ] 




Для Мосгорсуда, Роскомнадзора и рекламодателей:: mosgorsud-torrent[собачка]yandex.ru