Торрент файл
скачать торрент магнет ссылка Добавлен: 08 янв 2012, 11:36
Размер: 3.05 ГБ
Сидеров: 6
Личеров: 7
Автор

СообщениеДобавлено: 08 янв 2012, 11:36 

Не в сети
Зам. Админа
Аватара пользователя
Дата регистрации:
02 дек 2010, 12:39
Спасибо: 12583 / 214
Сообщения: 28049
VA - Лучшее от Ello Vol.5

Формат: DVD5, DVD Video, MPEG2, AC3
Песня: Лучшее от Ello Vol.5
Жанр: Pop, R'n'B
Продолжительность: 02:02:45
Год выпуска: 2011

Видео: 720x576 (PAL 4:3), 25 fps, MPEG-2, ~1739 Mbps avg, 0.168 bit/pixel
Аудио: 48 kHz, AC-3, 2 ch, 192.00 kbps avg

Доп. информация: Материал взят с канала Ello - который представляет в свою очередь новинки как российской так и зарубежной попсы. Отличный профессиональный музыкальный канал и даже стоп кадры на всех видео выставлены очень правильно. Здесь можно увидеть как звезд так и совершенно молодых исполнителей. Предлагаю Вашему вниманию ПЯТУЮ подбороку с этого канала.

01Alex Cosmo & Inertia feat Adriana - Супер Герой
02 Валерия - Боль
03 Марсель - Сколько бы (Remix)
04 Глюк'oZa - High Sign
05 Настя Задорожная - Зачем топтать мою любовь
06 Shantel - Партизаны
07 Инь-Ян - Не отпускай моей руки
08 Беретта - Тук, тук, тук
09 Яжевика - Галлюциногенный
10 Винтаж - Мама-Америка
11 Филипп Киркоров - Снег
12 Dan Balan и Вера Брежнева - Лепестками слез
13 Руслан Алехно - Необыкновенная
14 Банд'Эрос - Манхэттен
15 Алла Пугачева и Кристина Орбакайте - Опять метель
16 Анна Седокова - Ревность
17 Вадим Казаченко - Если брошу тебя
18 Подъем и Карина М - Хочет и не может
19 Тина Кароль - Я скажу да
20 HI-FI - По следам
21 Корнелия Манго - Полетели
22 Настя Задорожная и М16 - С ночи до утра
23 Серёга и Маша Малиновская - С новым Годом - С.Н.Г.
24 Горячий Шоколад - Без ума от счастья
25 хуРма Project - Нина
26 MALINA - Самый лучший кайф
27 Иракли (VS Лера Кондра) - Вокруг земли
28 Дима Билан - Я просто люблю тебя
29 Руслан Нигматуллин - Symphony
30 Настя Ясная - Останься со мной
31 Цвет Алое и Чим - Нежность
32 Зоя Левада - Успокой меня

Общее
Формат: MPEG-PS
Общий поток: 1970 Кбит/сек

Видео
Идентификатор: 224 (0xE0)
Формат: MPEG Video
Версия формата: Version 2
Профиль формата: Main@Main
Параметр BVOP формата: Да
Параметр матрицы формата: По умолчанию
Параметры GOP формата: M=3, N=13
Вид битрейта: Переменный
Битрейт: 1739 Кбит/сек
Номинальный битрейт: 9008 Кбит/сек
Ширина: 720 пикс.
Высота: 576 пикс.
Соотношение сторон: 4:3
Частота кадров: 25,000 кадр/сек
Стандарт вещания: PAL
Цветовое пространство: YUV
Подвыборка цветности: 4:2:0
Битовая глубина: 8 бит
Тип развёртки: Прогрессивная
Метод сжатия: С потерями
Бит/(Пиксели*Кадры): 0.168
Размер потока: 7,01 Мбайт (87%)

Аудио
Идентификатор: 128 (0x80)
Формат: AC-3
Формат/Информация: Audio Coding 3
Расширение режима: CM (complete main)
Вид битрейта: Постоянный
Битрейт: 192 Кбит/сек
Канал(ы): 2 канала(ов)
Расположение каналов: Front: L R
Частота: 48,0 КГц
Битовая глубина: 16 бит
Метод сжатия: С потерями
Задержка видео: -544 мс.
Размер потока: 806 Кбайт (10%)












Поделиться:




реклама партнёра


Вернуться к началу
 Профиль  
 
   Похожие торренты   Автор   Торрент   Размер 
В этой теме нет новых непрочитанных сообщений. Военные игры / War Games: At the End of the Day [Триллер, боевик, ужасы, 2011] DVD5, Mvo

salma3

15 | 11

4.35 ГБ

В этой теме нет новых непрочитанных сообщений. 1911 / Падение последней империи / Xinhai geming [боевик, драма, приключения, военный, история, 2011] DVD5, Mvo+Sub Лицензия

salma3

7 | 2

4.36 ГБ

В этой теме нет новых непрочитанных сообщений. Из 13 в 30 / 13 Going on 30 [Комедия, мелодрама, 2004] DVD5, Mvo

salma3

7 | 0

4.33 ГБ

В этой теме нет новых непрочитанных сообщений. Бармен ( комедия, фэнтези, 2015) DVD5

marya111

0 | 4

4.37 ГБ

В этой теме нет новых непрочитанных сообщений. Шантаж / BlackMale [триллер, 2000] DVD5, Mvo

salma3

41 | 8

3.7 ГБ

В этой теме нет новых непрочитанных сообщений. Самоволка-72 / AWOL-72 [Триллер, 2015] DVD5, Avo+Sub

salma3

660 | 252

4.36 ГБ

В этой теме нет новых непрочитанных сообщений. Авантюристы [приключения, 2014] DVD5 [Лицензия]

Dracon

231 | 18

4.02 ГБ


Начать новую тему Ответить на тему  [ 1 сообщение ] 




Для Мосгорсуда, Роскомнадзора и рекламодателей:: mosgorsud-torrent[собачка]yandex.ru