Торрент файл
скачать торрент магнет ссылка Добавлен: 08 янв 2012, 11:35
Размер: 510.28 МБ
Сидеров: 0
Личеров: 6
Автор

СообщениеДобавлено: 08 янв 2012, 11:35 

Не в сети
Зам. Админа
Аватара пользователя
Дата регистрации:
02 дек 2010, 12:39
Спасибо: 12623 / 214
Сообщения: 28012
Кипелов - Нашествие

Формат: WebRip, MP4, H.264, AAC
Песня: Нашествие
Жанр: Rock
Продолжительность: 00:48:59
Год выпуска: 2011
Видео: 960:720 (4:3), 25 fps, H.264 MP4 ~1350 kbps avg, 0.078 bit/pixel
Аудио: 44.1 KHz, AAC, 2 ch, ~96.0 Kbps avg
Доп. информация:
«Нашествие» — крупнейший в России и СНГ фестиваль отечественной рок-музыки под открытым небом.
Организатором фестиваля выступает московская радиостанция «Наше радио». Валерий Кипелов приглашен как один из главных гостей фестиваля!
E:\Клипы\Кипелов - НАШЕствие 2011 .mp4
General
Complete name : E:\Клипы\Кипелов - НАШЕствие 2011 .mp4
Format : MPEG-4
Format profile : Base Media
Codec ID : isom
File size : 510 MiB
Duration : 48mn 59s
Overall bit rate : 1 456 Kbps
Writing application : Lavf52.40.0
Video #1
ID : 1
Format : AVC
Format/Info : Advanced Video Codec
Format profile : High@L3.1
Format settings, CABAC : Yes
Format settings, ReFrames : 3 frames
Codec ID : avc1
Codec ID/Info : Advanced Video Coding
Duration : 48mn 59s
Bit rate mode : Variable
Bit rate : 1 350 Kbps
Width : 960 pixels
Height : 720 pixels
Display aspect ratio : 4:3
Frame rate mode : Constant
Frame rate : 25.000 fps
Color space : YUV
Chroma subsampling : 4:2:0
Bit depth : 8 bits
Scan type : Progressive
Bits/(Pixel*Frame) : 0.078
Stream size : 474 MiB (93%)
Writing library : x264 core 79
Encoding settings : cabac=1 / ref=3 / deblock=1:0:0 / analyse=0x3:0x113 / me=hex / subme=7 / psy=1 / psy_rd=1.0:0.0 / mixed_ref=1 / me_range=16 / chroma_me=1 / trellis=1 / 8x8dct=1 / cqm=0 / deadzone=21,11 / chroma_qp_offset=-2 / threads=24 / nr=0 / decimate=1 / mbaff=0 / constrained_intra=0 / bframes=3 / b_pyramid=0 / b_adapt=1 / b_bias=0 / direct=1 / wpredb=32 / wpredp=2 / keyint=250 / keyint_min=25 / scenecut=40 / rc_lookahead=40 / rc=abr / mbtree=1 / bitrate=1350 / ratetol=3.0 / qcomp=0.60 / qpmin=10 / qpmax=51 / qpstep=4 / ip_ratio=1.41 / aq=1:1.00
Language : English
Audio #2
ID : 2
Format : AAC
Format/Info : Advanced Audio Codec
Format profile : LC
Codec ID : 40
Duration : 48mn 59s
Bit rate mode : Variable
Bit rate : 96.0 Kbps
Channel(s) : 2 channels
Channel positions : Front: L R
Sampling rate : 44.1 KHz
Compression mode : Lossy
Stream size : 34.2 MiB (7%)
Language : English
01 Жить вопреки
02 Власть огня
03 Не сейчас
04 Дыханье последней любви
05 Путь в никуда
06 Следуй за мной
07 Беспечный ангел
08 Попурри (Встань, страх преодолей, Тореро, Воля и разум)



Поделиться:




реклама партнёра


Вернуться к началу
 Профиль  
 
   Похожие торренты   Автор   Торрент   Размер 
В этой теме нет новых непрочитанных сообщений. Оз: Нашествие летучих обезьян / Guardianes de Oz (Альберто Мар) [мультфильм, фэнтези, приключения, 2015] WEBRip, dub [чистый звук]

Dracon

1 | 2

1.37 ГБ

В этой теме нет новых непрочитанных сообщений. Сборник клипов - Metal, Rock [Vol.4] [2014, Metal, Rock, Клип, WEBRip 720p]

Nickolas3435

107 | 11

3.27 ГБ

В этой теме нет новых непрочитанных сообщений. Нашествие зомби / Zombies Have Fallen [боевик, триллер, ужасы, 2017] WEBDLRip, Dvo

salma3

316 | 104

1.37 ГБ

В этой теме нет новых непрочитанных сообщений. Оз: Нашествие летучих обезьян / Guardianes de Oz (Альберто Мар) [мультфильм, фэнтези, приключения, 2015] HDRip, Dub [Лицензия]

Dracon

2 | 1

1.46 ГБ

В этой теме нет новых непрочитанных сообщений. Оз: Нашествие летучих обезьян / Guardianes de Oz (Альберто Мар) [мультфильм, фэнтези, приключения, 2015] BDRip 1080p, Dub [Лицензия]

Dracon

1 | 1

4.89 ГБ

В этой теме нет новых непрочитанных сообщений. Оз: Нашествие летучих обезьян / Guardianes de Oz (Альберто Мар) [мультфильм, фэнтези, приключения, 2015] BDRip 720p, Dub [Лицензия]

Dracon

20 | 1

2.63 ГБ

В этой теме нет новых непрочитанных сообщений. Kim Wilde - The Video Hits Collection [Pop-rock, 2016] WEBRip

salma3

14 | 1

917.09 МБ


Начать новую тему Ответить на тему  [ 1 сообщение ] 




Для Мосгорсуда, Роскомнадзора и рекламодателей:: mosgorsud-torrent[собачка]yandex.ru