Торрент файл
скачать торрент магнет ссылка Добавлен: 08 янв 2012, 11:33
Размер: 3.24 ГБ
Сидеров: 0
Личеров: 6
Автор

СообщениеДобавлено: 08 янв 2012, 11:33 

Не в сети
Зам. Админа
Аватара пользователя
Дата регистрации:
02 дек 2010, 12:39
Спасибо: 12581 / 214
Сообщения: 28049
VA - Лучшее от Ello Vol.6

Формат: DVD5, DVD Video, MPEG2, AC3
Название: Лучшее от Ello Vol.6
Жанр: Pop, R'n'B
Продолжительность: 01:57:40
Год выпуска: 2011

Видео: 720x576 (PAL 4:3), 25 fps, MPEG-2, ~3518 kbps avg, 0.339 bit/pixel
Аудио: 48 kHz, АС-3, 2 ch, 192.00 kbps avg

Доп. информация: Материал взят с канала Ello - который представляет в свою очередь новинки как российской так и зарубежной попсы. Отличный профессиональный музыкальный канал и даже стоп кадры на всех видео выставлены очень правильно. Здесь можно увидеть как звезд так и совершенно молодых исполнителей. Предлагаю Вашему вниманию ШЕСТУЮ подбороку с этого канала.
01 140 Ударов в минуту - Без тебя
02 Serebro - Опиум
03 Все включено - Кабрио-лето
04 Настя Задорожная - Буду (Ремикс)
05 Елка - Город обмана
06 Вера Брежнева - Реальная жизнь
07 Чи-Ли - Ромашковое поле
08 Max Barskih - Глаза-убийцы
09 Анита Цой - Твоя А
10 Денис Майданов - Вечная любовь
11 Вахтанг - Dangerous
12 Сергей Артемьев - Талисман
13 Дима Билан - Lady
14 Время и Стекло - Серебряное море
15 Алексей Чумаков - Девочка, девушка, женщина
16 Нюша - Выбирать чудо
17 Лера Кондра - Бармен Саша
18 Серёга — Кружим
19 Тамерлан и Алена Омаргалиева - Ты только мой
20 Валерий Меладзе и Григорий Лепс - Обернитесь
21 Чай вдвоём - Господин Президент
22 БандЭрос - Китано
23 Юрий Третьяк - Только тебе
24 Винтаж - Целься
25 Юлия Бардаш - Опля
26 Глюк'оZa - Вот такая любовь
27 Лера Туманова - Подари мне небо
28 XL Deluks - Все на танцпол feat. Яна Яновская
29 А'Studio - Улетаю
30 deTach - Откровение
31 DJ Smash - Можно без слов
32 Алина Гросу ft. Лион - Мелом на асфальте

Общее
Формат: MPEG-PS
Общий поток: 3785 Кбит/сек

Видео
Идентификатор: 224 (0xE0)
Формат: MPEG Video
Версия формата: Version 2
Профиль формата: Main@Main
Параметр BVOP формата: Да
Параметр матрицы формата: По умолчанию
Параметры GOP формата: M=3, N=15
Вид битрейта: Переменный
Битрейт: 3518 Кбит/сек
Номинальный битрейт: 9008 Кбит/сек
Ширина: 720 пикс.
Высота: 576 пикс.
Соотношение сторон: 4:3
Частота кадров: 25,000 кадр/сек
Стандарт вещания: PAL
Цветовое пространство: YUV
Подвыборка цветности: 4:2:0
Битовая глубина: 8 бит
Тип развёртки: Прогрессивная
Метод сжатия: С потерями
Бит/(Пиксели*Кадры): 0.339
Размер потока: 952 Мбайт (93%)

Аудио
Идентификатор: 128 (0x80)
Формат: AC-3
Формат/Информация: Audio Coding 3
Расширение режима: CM (complete main)
Вид битрейта: Постоянный
Битрейт: 192 Кбит/сек
Канал(ы): 2 канала(ов)
Расположение каналов: Front: L R
Частота: 48,0 КГц
Битовая глубина: 16 бит
Метод сжатия: С потерями
Размер потока: 51,9 Мбайт (5%)












Поделиться:




реклама партнёра


Вернуться к началу
 Профиль  
 
   Похожие торренты   Автор   Торрент   Размер 
В этой теме нет новых непрочитанных сообщений. Военные игры / War Games: At the End of the Day [Триллер, боевик, ужасы, 2011] DVD5, Mvo

salma3

15 | 11

4.35 ГБ

В этой теме нет новых непрочитанных сообщений. 1911 / Падение последней империи / Xinhai geming [боевик, драма, приключения, военный, история, 2011] DVD5, Mvo+Sub Лицензия

salma3

7 | 2

4.36 ГБ

В этой теме нет новых непрочитанных сообщений. Из 13 в 30 / 13 Going on 30 [Комедия, мелодрама, 2004] DVD5, Mvo

salma3

7 | 0

4.33 ГБ

В этой теме нет новых непрочитанных сообщений. Бармен ( комедия, фэнтези, 2015) DVD5

marya111

0 | 4

4.37 ГБ

В этой теме нет новых непрочитанных сообщений. Шантаж / BlackMale [триллер, 2000] DVD5, Mvo

salma3

41 | 8

3.7 ГБ

В этой теме нет новых непрочитанных сообщений. Самоволка-72 / AWOL-72 [Триллер, 2015] DVD5, Avo+Sub

salma3

660 | 252

4.36 ГБ

В этой теме нет новых непрочитанных сообщений. Авантюристы [приключения, 2014] DVD5 [Лицензия]

Dracon

231 | 18

4.02 ГБ


Начать новую тему Ответить на тему  [ 1 сообщение ] 




Для Мосгорсуда, Роскомнадзора и рекламодателей:: mosgorsud-torrent[собачка]yandex.ru