Торрент файл
скачать торрент магнет ссылка Добавлен: 08 янв 2012, 11:33
Размер: 3.24 ГБ
Сидеров: 0
Личеров: 6
Автор

СообщениеДобавлено: 08 янв 2012, 11:33 

Не в сети
Зам. Админа
Аватара пользователя
Дата регистрации:
02 дек 2010, 12:39
Спасибо: 12707 / 214
Сообщения: 27959
VA - Лучшее от Ello Vol.6

Формат: DVD5, DVD Video, MPEG2, AC3
Название: Лучшее от Ello Vol.6
Жанр: Pop, R'n'B
Продолжительность: 01:57:40
Год выпуска: 2011

Видео: 720x576 (PAL 4:3), 25 fps, MPEG-2, ~3518 kbps avg, 0.339 bit/pixel
Аудио: 48 kHz, АС-3, 2 ch, 192.00 kbps avg

Доп. информация: Материал взят с канала Ello - который представляет в свою очередь новинки как российской так и зарубежной попсы. Отличный профессиональный музыкальный канал и даже стоп кадры на всех видео выставлены очень правильно. Здесь можно увидеть как звезд так и совершенно молодых исполнителей. Предлагаю Вашему вниманию ШЕСТУЮ подбороку с этого канала.
01 140 Ударов в минуту - Без тебя
02 Serebro - Опиум
03 Все включено - Кабрио-лето
04 Настя Задорожная - Буду (Ремикс)
05 Елка - Город обмана
06 Вера Брежнева - Реальная жизнь
07 Чи-Ли - Ромашковое поле
08 Max Barskih - Глаза-убийцы
09 Анита Цой - Твоя А
10 Денис Майданов - Вечная любовь
11 Вахтанг - Dangerous
12 Сергей Артемьев - Талисман
13 Дима Билан - Lady
14 Время и Стекло - Серебряное море
15 Алексей Чумаков - Девочка, девушка, женщина
16 Нюша - Выбирать чудо
17 Лера Кондра - Бармен Саша
18 Серёга — Кружим
19 Тамерлан и Алена Омаргалиева - Ты только мой
20 Валерий Меладзе и Григорий Лепс - Обернитесь
21 Чай вдвоём - Господин Президент
22 БандЭрос - Китано
23 Юрий Третьяк - Только тебе
24 Винтаж - Целься
25 Юлия Бардаш - Опля
26 Глюк'оZa - Вот такая любовь
27 Лера Туманова - Подари мне небо
28 XL Deluks - Все на танцпол feat. Яна Яновская
29 А'Studio - Улетаю
30 deTach - Откровение
31 DJ Smash - Можно без слов
32 Алина Гросу ft. Лион - Мелом на асфальте

Общее
Формат: MPEG-PS
Общий поток: 3785 Кбит/сек

Видео
Идентификатор: 224 (0xE0)
Формат: MPEG Video
Версия формата: Version 2
Профиль формата: Main@Main
Параметр BVOP формата: Да
Параметр матрицы формата: По умолчанию
Параметры GOP формата: M=3, N=15
Вид битрейта: Переменный
Битрейт: 3518 Кбит/сек
Номинальный битрейт: 9008 Кбит/сек
Ширина: 720 пикс.
Высота: 576 пикс.
Соотношение сторон: 4:3
Частота кадров: 25,000 кадр/сек
Стандарт вещания: PAL
Цветовое пространство: YUV
Подвыборка цветности: 4:2:0
Битовая глубина: 8 бит
Тип развёртки: Прогрессивная
Метод сжатия: С потерями
Бит/(Пиксели*Кадры): 0.339
Размер потока: 952 Мбайт (93%)

Аудио
Идентификатор: 128 (0x80)
Формат: AC-3
Формат/Информация: Audio Coding 3
Расширение режима: CM (complete main)
Вид битрейта: Постоянный
Битрейт: 192 Кбит/сек
Канал(ы): 2 канала(ов)
Расположение каналов: Front: L R
Частота: 48,0 КГц
Битовая глубина: 16 бит
Метод сжатия: С потерями
Размер потока: 51,9 Мбайт (5%)












Поделиться:



Вернуться к началу
 Профиль  
 
   Похожие торренты   Автор   Торрент   Размер 
В этой теме нет новых непрочитанных сообщений. [EvilAngel.com]Adriana Chechik's Extreme Gangbang [2020 г., Gonzo Hardcore All Sex Anal DP DAP DVP 480p]

salma3

0 | 0

583.24 МБ

В этой теме нет новых непрочитанных сообщений. [Brazzers.com / MommyGotBoobs.com] Katie Monroe (Mom's Helping Hands) [03.12.2019, All Sex, Big Tits, Blonde, Caucasian, Jeans, Piercing, Small Ass, Tattoo, 720p]

salma3

0 | 0

584.81 МБ

В этой теме нет новых непрочитанных сообщений. [EvilAngel.com]Adreena Winters ( MILF Adreena's Interracial Anal Gaping) [2019 г., Gonzo Hardcore Anal IR]

salma3

0 | 0

590.87 МБ

В этой теме нет новых непрочитанных сообщений. [MonstersOfCock.com / BangBros.com] Whitney Wright (Whitney's Double Dick Anal Fuck / mc17666) [2020-07-19, Anal, All Sex, Blowjob, DP, Facial, Interracial, Threesome, MMF, 480p]

salma3

39 | 13

314.03 МБ

В этой теме нет новых непрочитанных сообщений. Jessica Darlin (147) (Analysa Reese, Anna Lysa Rush, Jessica Darlin', Jessica Darling) MegaPack [1997-2008, Anal, Facial, Creampie, IR, DP, Swallow, A2M, MILF]

salma3

5 | 8

29.11 ГБ

В этой теме нет новых непрочитанных сообщений. [EvilAngel.com]Emma Hix( Emma Hix's Gaping Anal Fix) [2020 г., Gonzo Hardcore All Sex Anal ]

salma3

0 | 0

589.37 МБ

В этой теме нет новых непрочитанных сообщений. [EvilAngel.com]Vanessa Vega( Vanessa Vega: Anal 'Ho In Pantyhose) [2020 г., Gonzo Hardcore All Sex Anal ]

salma3

0 | 0

403.99 МБ


Начать новую тему Ответить на тему  [ 1 сообщение ] 




Для Мосгорсуда, Роскомнадзора и рекламодателей:: rstracker[собака]yandex.ru
cron