Торрент файл
скачать торрент магнет ссылка Добавлен: 08 янв 2012, 11:33
Размер: 7.66 ГБ
Сидеров: 1
Личеров: 3
Автор

СообщениеДобавлено: 08 янв 2012, 11:33 

Не в сети
Зам. Админа
Аватара пользователя
Дата регистрации:
02 дек 2010, 12:39
Спасибо: 12460 / 214
Сообщения: 27968
Anthrax - Alive 2

Формат: DVD 9, DVD Video, MPEG 2, AC 3
Песня: Alive 2
Жанр: Thrash Metal
Продолжительность: 03:00:00
Год выпуска: 2005
Видео: MPEG 2 VIDEO, 720*576( PAL 4:3), 25.00 fps, 5489 kbps avg, 0. 529 bit/pixel
Аудио #1: 48,0 khz, AC 3, 2 ch, 448 kbps avg
Аудио #2: 48,0 khz, AC 3, 6 ch, 448 kbps avg
Доп. информация: DVD вмещает: концерт, состоявшийся 3 июня 2005 года, в Sayreville, New Jersey, USA, закулисные съемки, документальные кадры, интервью и фото-галерею.
    Состав: Joey Belladonna - vocals
    Frank Bello - bass
    Charlie Benante - drums
    Scott Ian - rhythm guitar
    Daniel Spitz - lead guitar
    Треклист:01. Among The Living
    02. Caught In A Mosh
    03. A.I.R.
    04. Madhouse
    05. Efilnikufesin (N.F.L.)
    06. Deathrider
    07. Medusa
    08. In My World
    09. Indians
    10. Time
    11. I'm The Man
    12. Be All End All
    13. I Am The Law
    Дополнительно:Lone Justice (Clip)
    Documentary
    State Of Euphoria
    Juliya Interwiew
    Touring Tales
    The Vaccine
    Photo Gallery
Title: Anthrax - Alive 2
Size: 7.66 Gb ( 8 031 262,00 KBytes ) - DVD-9
Enabled regions: 1, 2, 3, 4, 5, 6, 7, 8

VTS_01 :
Play Length: 01:25:28+00:00:01
Video: PAL 4:3 (720x576) VBR
Audio:
Not specified (Dolby AC3, 6 ch)
Not specified (Dolby AC3, 2 ch)

VTS_02 :
Play Length: 00:50:01+00:00:01+00:08:10+00:25:31+{00:00:01}+00:02:03+00:02:56+00:00:23+00:05:48
Video: PAL 4:3 (720x576) VBR
Audio:
Not specified (Dolby AC3, 2 ch)
Subtitles:
Not specified

VTS_03 :
Play Length: 00:00:40
Video: PAL 4:3 (720x576) VBR
Audio:
Not specified (Dolby AC3, 2 ch)
Subtitles:
Not specified

* Menus Information *

VIDEO_TS Menu
Video:
PAL 4:3 (720x576) VBR
Audio:
Not specified (Dolby AC3, 2 ch)
English Language Unit :
Title Menu

VTS_01 Menu
Video:
PAL 4:3 (720x576) VBR
Audio:
Not specified (Dolby AC3, 2 ch)
English Language Unit :
Root Menu
Audio Menu

VTS_02 Menu
Video:
PAL 4:3 (720x576) VBR
Audio:
Not specified (Dolby AC3, 2 ch)
English Language Unit :
Root Menu

VTS_03 Menu
Video:
PAL 4:3 (720x576) VBR
English Language Unit :
Root Menu
Общее
Полное имя: D:\Video\Anthrax - Alive 2\VIDEO_TS\VTS_01_1.VOB
Формат: MPEG-PS
Размер файла: 1024 Мбайт
Продолжительность: 21 м.
Общий поток: 6514 Кбит/сек

Видео
Идентификатор: 224 (0xE0)
Формат: MPEG Video
Версия формата: Version 2
Профиль формата: Main@Main
Параметр BVOP формата: Да
Параметр матрицы формата: По умолчанию
Продолжительность: 21 м.
Вид битрейта: Постоянный
Битрейт: 5489 Кбит/сек
Ширина: 720 пикс.
Высота: 576 пикс.
Соотношение сторон: 4:3
Частота кадров: 25,000 кадр/сек
Стандарт вещания: PAL
Цветовое пространство: YUV
Подвыборка цветности: 4:2:0
Битовая глубина: 8 бит
Метод сжатия: С потерями
Бит/(Пиксели*Кадры): 0.529
Размер потока: 862 Мбайт (84%)

Аудио #1
Идентификатор: 128 (0x80)
Формат: AC-3
Формат/Информация: Audio Coding 3
Расширение режима: CM (complete main)
Продолжительность: 21 м.
Вид битрейта: Постоянный
Битрейт: 448 Кбит/сек
Каналы: 6 каналов
Расположение каналов: Front: L C R, Side: L R, LFE
Частота: 48,0 КГц
Битовая глубина: 16 бит
Метод сжатия: С потерями
Задержка видео: -50 мс.
Размер потока: 70,4 Мбайт (7%)

Аудио #2
Идентификатор: 129 (0x81)
Формат: AC-3
Формат/Информация: Audio Coding 3
Расширение режима: CM (complete main)
Продолжительность: 21 м.
Вид битрейта: Постоянный
Битрейт: 448 Кбит/сек
Каналы: 2 канала
Расположение каналов: Front: L R
Частота: 48,0 КГц
Битовая глубина: 16 бит
Метод сжатия: С потерями
Задержка видео: -50 мс.
Размер потока: 70,4 Мбайт (7%)

Меню











[b]Поделиться:




реклама партнёра


Вернуться к началу
 Профиль  
 
   Похожие торренты   Автор   Торрент   Размер 
В этой теме нет новых непрочитанных сообщений. Anthrax - Anthems (EP) [03.2013, Heavy, Thrash Metal, MP3]

PriZraK

0 | 1

77.27 МБ

В этой теме нет новых непрочитанных сообщений. Anthrax - Persistence Of Time [1990, Thrash metal, MP3]

PriZraK

0 | 1

80.86 МБ

В этой теме нет новых непрочитанных сообщений. Anthrax - Worship Music / Anthems (EP) (2CD Special Edition) [2013, Thrash Metal, MP3]

PriZraK

1 | 1

279.22 МБ

В этой теме нет новых непрочитанных сообщений. Sepultura & Les Tambours Du Bronx – Metal Veins – Alive At Rock In Rio (Live) [2014, Groove Metal, Thrash Metal, MP3]

PriZraK

11 | 3

138.99 МБ

В этой теме нет новых непрочитанных сообщений. Kreator - Dying Alive (Live) [Deluxe Edition] [2013, Thrash Metal, MP3]

PriZraK

0 | 1

457.16 МБ

В этой теме нет новых непрочитанных сообщений. Vinder - Visions Of Time [2005, Heavy Metal,Thrash Metal, MP3]

PriZraK

0 | 1

99.79 МБ

В этой теме нет новых непрочитанных сообщений. Resurrected - Past Scars Aria [2005, Thrash Metal, MP3]

PriZraK

0 | 1

56.14 МБ


Начать новую тему Ответить на тему  [ 1 сообщение ] 




Для Мосгорсуда, Роскомнадзора и рекламодателей:: mosgorsud-torrent[собачка]yandex.ru