Торрент файл
скачать торрент магнет ссылка Добавлен: 08 янв 2012, 11:32
Размер: 4.32 ГБ
Сидеров: 0
Личеров: 5
Автор

СообщениеДобавлено: 08 янв 2012, 11:32 

Не в сети
Зам. Админа
Аватара пользователя
Дата регистрации:
02 дек 2010, 12:39
Спасибо: 12461 / 214
Сообщения: 27968
Bon Jovi - Live At Madison Square Garden

Формат: DVD 5 , DVD Video, MPEG 2, AC 3
Песня: Live At Madison Square Garden
Жанр: Rock
Продолжительность: 02:23:00
Год выпуска: 2009
Видео: MPEG 2 VIDEO, 720*480, (NTSC 16:9), 23.976 fps, 3831 kbps avg,0,462 bit/pixel
Аудио #1: 48,0 khz, AC-3, 2 ch, 224 kbps avg
Аудио #2: 48,0 khz, AC 3, 6 ch, 224 kbps avg
Доп. информация: Концерт, состоявшийся 15 июля 2008 года, в Madison Square Garden, New York City, USA.
    Состав:Jon BonGiovi - vocals, guitars
    Richie Sambora - guitars
    David Bryan - key
    Huge MacDonald - bass
    Tico Torres - drums
    Треклист: 01. Lost Highway
    02. Born To Be My Baby
    03. Blaze Of Glory
    04. It's My Life
    05. Keep The Faith
    06. Raise Your Hands
    07. Living In Sin/Chapel Of Love
    08. Always
    09. Whole Lot Of Lovin'
    10. In These Arms
    11. We Got It Going On
    12. I'll Be There For You
    13. (You Want To) Make A Memory
    14. Blood On Blood
    15. Dry County
    16. Have A Nice Day
    17. Who Says You Can't Go Home
    18. Hallelujah
    19. Wanted Dead Or Alive
    20. Livin' On A Prayer

    Bonus Songs

    21. You Give Love A Bad Name
    22. Runaway
    23. Bed Of Roses
Title: VIDEO TS
Size: 4.32 Gb ( 4 528 938,00 KBytes ) - DVD-5
Enabled regions: 1, 2, 3, 4, 5, 6, 7, 8

VTS_01 :
Play Length: 02:05:30
Video: NTSC 16:9 (720x480) VBR, Auto Letterboxed
Audio:
English, AC3, 2/0 (L,R) ch, 224 kbps, Delay 0 mSec
English, AC3, 3/2 (L,C,R,SL,SR)+LFE ch, 448 kbps, Delay 0 mSec

VTS_02 :
Play Length: 00:04:04+00:05:10+00:08:11
Video: NTSC 16:9 (720x480) VBR, Auto Letterboxed
Audio:
English (Dolby AC3, 2 ch)
English (Dolby AC3, 6 ch)

* Menus Information *

VIDEO_TS Menu
Video:
NTSC 16:9 (720x480) VBR
Auto Letterboxed
Audio:
Not specified (Dolby AC3, 2 ch)
English Language Unit :
Title Menu

VTS_01 Menu
Video:
NTSC 16:9 (720x480) VBR
Auto Letterboxed
English Language Unit :
Root Menu

VTS_02 Menu
Video:
NTSC 16:9 (720x480) VBR
Auto Letterboxed
English Language Unit :
Root Menu
Общее
Полное имя: D:\Torrents\Download\Bon Jovi -Live Madison Square Garden\VIDEO TS\VTS_01_1.VOB
Формат: MPEG-PS
Размер файла: 1024 Мбайт
Продолжительность: 31 м.
Общий поток: 4594 Кбит/сек

Видео
Идентификатор: 224 (0xE0)
Формат: MPEG Video
Версия формата: Version 2
Профиль формата: Main@Main
Параметр BVOP формата: Да
Параметр матрицы формата: По умолчанию
Продолжительность: 31 м.
Вид битрейта: Переменный
Битрейт: 3831 Кбит/сек
Номинальный битрейт: 8480 Кбит/сек
Ширина: 720 пикс.
Высота: 480 пикс.
Соотношение сторон: 16:9
Частота кадров: 23,976 кадр/сек
Стандарт вещания: NTSC
Цветовое пространство: YUV
Подвыборка цветности: 4:2:0
Битовая глубина: 8 бит
Тип развёртки: Прогрессивная
Порядок развёртки: 2:3 Pulldown
Метод сжатия: С потерями
Бит/(Пиксели*Кадры): 0.462
Размер потока: 854 Мбайт (83%)

Аудио #1
Идентификатор: 128 (0x80)
Формат: AC-3
Формат/Информация: Audio Coding 3
Расширение режима: CM (complete main)
Продолжительность: 31 м.
Вид битрейта: Постоянный
Битрейт: 224 Кбит/сек
Каналы: 2 канала
Расположение каналов: Front: L R
Частота: 48,0 КГц
Битовая глубина: 16 бит
Метод сжатия: С потерями
Размер потока: 49,9 Мбайт (5%)

Аудио #2
Идентификатор: 129 (0x81)
Формат: AC-3
Формат/Информация: Audio Coding 3
Расширение режима: CM (complete main)
Продолжительность: 31 м.
Вид битрейта: Постоянный
Битрейт: 448 Кбит/сек
Каналы: 6 каналов
Расположение каналов: Front: L C R, Side: L R, LFE
Частота: 48,0 КГц
Битовая глубина: 16 бит
Метод сжатия: С потерями
Размер потока: 99,8 Мбайт (10%)

Меню











[b]Поделиться:




реклама партнёра


Вернуться к началу
 Профиль  
 
   Похожие торренты   Автор   Торрент   Размер 
В этой теме нет новых непрочитанных сообщений. Jack White And The Bricks - Live On the Garden Bowl Lanes: July 9, 1999 [2013, Alt. Rock, MP3]

PriZraK

0 | 2

64.85 МБ

В этой теме нет новых непрочитанных сообщений. Fuck 'Em Slutty #5 / Распутные Шлюхи 5 (Ryan Madison / Pornfidelity) (Jynx Maze, Kayla West, Kelly Madison, Kendall Karson, Ryan Madison) [2015 г., Big Boobs, Gonzo, Threesomes, DVDRip 400p]

friizze

1 | 2

1.62 ГБ

В этой теме нет новых непрочитанных сообщений. Obsessed 2 / Одержимый 2 (Ryan Madison / Porn Fidelity) (Cameron Dee, Madison Ivy, Emmanuelle London, Jennifer Dark, Kelly Madison) [2014 г., All Sex, Oral, Gonzo, BigTits, Porn Stars, Pantyhose, Young (18+) Ladies, DVDRip 400p]

friizze

6 | 8

1.72 ГБ

В этой теме нет новых непрочитанных сообщений. Kelly Madison's World Famous Tits #7 / Всемирно известные сиськи Келли Мэдисон #7 (Porn Fidelity) (Kelly Madison, Ryan Madison) [2014 г., Big Tits, BJ, Gonzo, Hardcore, All Sex, WEB-DL 386p]

friizze

12 | 3

1.93 ГБ

В этой теме нет новых непрочитанных сообщений. Bon Jovi - Blaze Of Hits (Limited Edition) [2011, Hard Rock, Pop Rock, MP3]

PriZraK

7 | 1

220.57 МБ

В этой теме нет новых непрочитанных сообщений. Bon Jovi - All Gold [2000, Rock, Hard Rock, MP3]

PriZraK

7 | 1

184.98 МБ

В этой теме нет новых непрочитанных сообщений. купить виагру Dress Up / Ряженые (Kelly Madison, Ryan Madison, 413 Productions) [2014 г., All Sex, Oral, Big Tits, Fetish, DVDRip]

killerslava

18 | 17

1.7 ГБ


Начать новую тему Ответить на тему  [ 1 сообщение ] 




Для Мосгорсуда, Роскомнадзора и рекламодателей:: mosgorsud-torrent[собачка]yandex.ru