Торрент файл
скачать торрент магнет ссылка Добавлен: 08 янв 2012, 11:30
Размер: 2.01 ГБ
Сидеров: 10
Личеров: 9
Автор

СообщениеДобавлено: 08 янв 2012, 11:30 

Не в сети
Зам. Админа
Аватара пользователя
Дата регистрации:
02 дек 2010, 12:39
Спасибо: 12458 / 214
Сообщения: 27968
Ария - В поисках новой жертвы

Формат: TVRip, AVI, DivX, MP3
Песня: В поисках новой жертвы
Жанр: Heavy Metal
Продолжительность: 02:08:41
Год выпуска: 2001
Видео: MPEG 4 VIDEO, 720*480, (NTSC 4:3), 25.0 fps, 1999 kbps avg, 0 ,231 bit/pixel
Аудио: 44,1 khz, MP 3, 2 ch, 224 kbps avg
Доп. информация:Концерт, прошедший 1 декабря 2001 года в СК Олимпийский.
    Состав: Валерий Кипелов - вокал
    Владимир Холстинин - гитара
    Сергей Терентьев - гитара
    Виталий Дубинин - бас
    Александр Манякин - барабаны
    Треклист:1 - Intro (Carmina Burana)
    2 - Химера
    3 - Небо тебя найдёт
    4 - Раб страха
    5 - Горящая стрела
    6 - Вампир
    7 - Отшельник
    8 - Следуй за мной!
    9 - Штиль
    10 - Беги за солнцем
    11 - Осколок льда
    12 - Закат
    13 - Беспечный ангел
    14 - Ночь короче дня
    15 - Обман
    16 - Грязь
    17 - Герой асфальта
    18 - Тореро
    19 - Ангельская пыль
    20 - Баллада о древнерусском воине
    21 - Встань, страх преодолей
    22 - Улица роз
    23 - Здесь куют металл
    24 - Воля и разум
Общее
Полное имя: D:\Video\V poiskah novoi zertvi.avi
Формат: AVI
Формат/Информация: Audio Video Interleave
Профиль формата: OpenDML
Размер файла: 2,01 Гбайт
Продолжительность: 2 ч. 8 м.
Общий поток: 2235 Кбит/сек
Программа кодирования: Lavf51.12.1

Видео
Идентификатор: 0
Формат: MPEG-4 Visual
Профиль формата: Simple@L1
Параметр BVOP формата: Нет
Параметр QPel формата: Нет
Параметр GMC формата: Без точки перехода
Параметр матрицы формата: Default (H.263)
Идентификатор кодека: DX50
Идентификатор кодека/Подсказка: DivX 5
Продолжительность: 2 ч. 8 м.
Битрейт: 1999 Кбит/сек
Ширина: 720 пикс.
Высота: 480 пикс.
Соотношение сторон: 4:3
Частота кадров: 25,000 кадр/сек
Стандарт вещания: NTSC
Цветовое пространство: YUV
Подвыборка цветности: 4:2:0
Битовая глубина: 8 бит
Тип развёртки: Прогрессивная
Метод сжатия: С потерями
Бит/(Пиксели*Кадры): 0.231
Размер потока: 1,80 Гбайт (89%)
Библиотека кодирования: Lavc51.40.4

Аудио
Идентификатор: 1
Формат: MPEG Audio
Версия формата: Version 1
Профиль формата: Layer 3
Режим: Joint stereo
Расширение режима: MS Stereo
Идентификатор кодека: 55
Идентификатор кодека/Подсказка: MP3
Продолжительность: 1 м. 54 с.
Вид битрейта: Постоянный
Битрейт: 224 Кбит/сек
Каналы: 2 канала
Частота: 44,1 КГц
Метод сжатия: С потерями
Размер потока: 3,05 Мбайт (0%)
Выравнивание: Соединение по промежуткам
Продолжительность промежутка: 1767мс. (44,17 видеокадра)
Библиотека кодирования: LAME3.97









[b]Поделиться:




реклама партнёра


Вернуться к началу
 Профиль  
 
   Похожие торренты   Автор   Торрент   Размер 
В этой теме нет новых непрочитанных сообщений. Ария - Классическая Ария [2002, Heavy Metal, MP3]

PriZraK

17 | 5

71.92 МБ

В этой теме нет новых непрочитанных сообщений. Ария - Эхо судного дня (Live) [2011, Heavy Metal, MP3]

PriZraK

2 | 5

260.44 МБ

В этой теме нет новых непрочитанных сообщений. Ария - Live In Studio [2012, Heavy Metal, MP3]

PriZraK

9 | 6

202.14 МБ

В этой теме нет новых непрочитанных сообщений. VA - A Tribute to Ария. XXV [2010, Heavy metal, MP3 320kbps]

PriZraK

5 | 4

326.49 МБ

В этой теме нет новых непрочитанных сообщений. Ария - Коллекция легендарных песен [2011, Heavy Metal, MP3]

PriZraK

165 | 9

552.86 МБ

В этой теме нет новых непрочитанных сообщений. Ария - В жёлтом круге арены (Live) [2012, Heavy Metal, MP3]

PriZraK

9 | 6

264.33 МБ

В этой теме нет новых непрочитанных сообщений. Internet Tribute to АРИЯ. XXV. - Дай Руку Мне [2011, Trash,Power,Heavy Metal, MP3]

PriZraK

2 | 3

145.27 МБ


Начать новую тему Ответить на тему  [ 1 сообщение ] 




Для Мосгорсуда, Роскомнадзора и рекламодателей:: mosgorsud-torrent[собачка]yandex.ru