Торрент файл
скачать торрент магнет ссылка Добавлен: 08 янв 2012, 11:29
Размер: 3.26 ГБ
Сидеров: 13
Личеров: 6
Автор

СообщениеДобавлено: 08 янв 2012, 11:29 

Не в сети
Зам. Админа
Аватара пользователя
Дата регистрации:
02 дек 2010, 12:39
Спасибо: 12461 / 214
Сообщения: 27968
VA - Лучшее от Ello Vol. 7

Формат: DVD5, DVD Video, MPEG2, AC3
Песня: Лучшее от Ello Vol. 7
Жанр: Pop, R'n'B
Продолжительность: 01:57:51
Год выпуска: 2011

Видео: 720x576 (PAL 4:3), 25 fps, MPEG-2, ~3496 Mbps avg, 0.337 bit/pixel
Аудио: 48 kHz, AC-3, 2 ch, 192.00 kbps avg

Доп. информация: Материал взят с канала Ello - который представляет в свою очередь новинки как российской так и зарубежной попсы. Отличный профессиональный музыкальный канал и даже стоп кадры на всех видео выставлены очень правильно. Здесь можно увидеть как звезд так и совершенно молодых исполнителей. Предлагаю Вашему вниманию СЕДЬМУЮ подбороку с этого канала.
01 Serebro - Дыши
02 Инь - Ян - Сохрани меня
03 Шпильки - Ой, девки
04 Чи-Ли - Кошка
05 DJ Slon & Ангел А - А ты меня любишь
06 Согдиана - Синее небо
07 Ёлка - На воздушном шаре
08 Винтаж - Девочки Лунатики
09 DJ Smash - Птица
10 Даша Суворова - Поставит Басту
11 Денис Майданов - Я возвращаюсь домой
12 Hi-Fi - Время не властно (к-ф Елки)
13 Елена Есенина - Одиссей и Пенелопа
14 NikitA - Машина
15 Горячий Шоколад - Фурия
16 Алексей Хворостян - Падали но поднимались
17 Нюша - Вою на луну (Remix)
18 Павел Воля и Филипп Киркоров - Любовь
19 Алена Винницкая - Все это с нами
20 Ева - Не Жена
21 Катя Лель - Твоя
22 НеСтрелки - Вова, вернись
23 Shahzoda - Люблю тебя
24 Наталья Валевская - Твоё молчание
25 Виа Гра - Стоп
26 Аlisher - Открывай огонь!
27 Иракли - Напополам
28 Лавика - Вечный рай
29 Любовь Фоменко - Знаешь Сам
30 Мария Ржевская - Когда я стану кошкой
31 Ключи - Ночь. Дождь
32 Все звезды - Новогодняя

Общее
Формат: MPEG-PS
Общий поток: 3763 Кбит/сек

Видео
Идентификатор: 224 (0xE0)
Формат: MPEG Video
Версия формата: Version 2
Профиль формата: Main@Main
Параметр BVOP формата: Да
Параметр матрицы формата: По умолчанию
Параметры GOP формата: M=3, N=15
Вид битрейта: Переменный
Битрейт: 3496 Кбит/сек
Номинальный битрейт: 9008 Кбит/сек
Ширина: 720 пикс.
Высота: 576 пикс.
Соотношение сторон: 4:3
Частота кадров: 25,000 кадр/сек
Стандарт вещания: PAL
Цветовое пространство: YUV
Подвыборка цветности: 4:2:0
Битовая глубина: 8 бит
Тип развёртки: Прогрессивная
Метод сжатия: С потерями
Бит/(Пиксели*Кадры): 0.337
Размер потока: 951 Мбайт (93%)

Аудио
Идентификатор: 128 (0x80)
Формат: AC-3
Формат/Информация: Audio Coding 3
Расширение режима: CM (complete main)
Вид битрейта: Постоянный
Битрейт: 192 Кбит/сек
Канал(ы): 2 канала(ов)
Расположение каналов: Front: L R
Частота: 48,0 КГц
Битовая глубина: 16 бит
Метод сжатия: С потерями
Размер потока: 52,2 Мбайт (5%)













Поделиться:




реклама партнёра


Вернуться к началу
 Профиль  
 
   Похожие торренты   Автор   Торрент   Размер 
В этой теме нет новых непрочитанных сообщений. Освенцим / Auschwitz [драма, 2011] DVD5, Mvo+Sub [лицензия]

Dracon

57 | 7

3.77 ГБ

В этой теме нет новых непрочитанных сообщений. Уловка .44 / Catch .44 [триллер, драма, криминал, 2011] DVD5, Mvo+Sub

salma3

10 | 8

4.37 ГБ

В этой теме нет новых непрочитанных сообщений. Многоэтажка / Небоскреб смерти / Tower Block [триллер, 2011] DVD5, Mvo+Sub

salma3

9 | 7

4.32 ГБ

В этой теме нет новых непрочитанных сообщений. Маленький убийца / Little Murder [триллер, драма, 2011] DVD5, Mvo [лицензия]

salma3

0 | 2

3.93 ГБ

В этой теме нет новых непрочитанных сообщений. Военные игры / War Games: At the End of the Day [Триллер, боевик, ужасы, 2011] DVD5, Mvo

salma3

15 | 11

4.35 ГБ

В этой теме нет новых непрочитанных сообщений. 12 Рождественских желаний / 12 Wishes of Christmas [фэнтези, комедия, 2011] DVD5, Mvo [лицензия]

salma3

48 | 7

3.92 ГБ

В этой теме нет новых непрочитанных сообщений. Последний час Земли / Earth's Final Hours [Фантастика, 2011] DVD5, Mvo [Лицензия]

salma3

41 | 14

4.01 ГБ


Начать новую тему Ответить на тему  [ 1 сообщение ] 




Для Мосгорсуда, Роскомнадзора и рекламодателей:: mosgorsud-torrent[собачка]yandex.ru