Торрент файл
скачать торрент магнет ссылка Добавлен: 08 янв 2012, 11:29
Размер: 7.39 ГБ
Сидеров: 1
Личеров: 4
Автор

СообщениеДобавлено: 08 янв 2012, 11:29 

Не в сети
Зам. Админа
Аватара пользователя
Дата регистрации:
02 дек 2010, 12:39
Спасибо: 12461 / 214
Сообщения: 27968
Judas Priest - Electric Eye

Формат: DVD 9, DVD Video, MPEG 2, AC 3
Песня: Electric Eye
Жанр: Heavy Metal
Продолжительность: 02:25:00
Год выпуска: 2003
Видео: MPEG 2 VIDEO, 720*576( PAL 4:3), 25.00 fps, 5133 kbps avg, 0. 495 bit/pixel
Аудио #1: 48,0 khz, AC-3, 2 ch, 256 kbps avg
Аудио #2: 48,0 khz, AC-3, 6 ch, 448 kbps avg
Доп. информация:DVD вмещает: 13 видеоклипов (1980-1990 годов). Концерт в Далласе, Техас, США (1986 год). Выпускался также на VHS под названием

Priest...Live ( 1987 год). Телевизионные съёмки канала BBC разных лет. Дискографию группы.
    Состав: Rob Halford: Vocals
    Dave Holland: Drums
    K.K. Downing: Guitars
    Ian Hill: Bass Guitar
    Glenn Tipton: Guitars
Видеоклипы:

1. «Living After Midnight» (1980)
2. «Breaking the Law» (1980)
3. «Don’t Go» (1981)
4. «Heading Out to the Highway» (1981)
5. «Hot Rockin'» (1981)
6. «You’ve Got Another Thing Comin'» (1982)
7. «Freewheel Burning» (1984)
8. «Love Bites» (1984)
9. «Locked In» (1986)
10. «Turbo Lover» (1986)
11. «Johnny B. Goode» (1988)
12. «Painkiller» (1990)
13. «A Touch of Evil» (1990)

Концерт в Техасе:

1. «Out in the Cold»
2. «Locked In»
3. «Heading Out to the Highway»
4. «Breaking the Law»
5. «Love Bites»
6. «Some Heads Are Gonna Roll»
7. «The Sentinel»
8. «Private Property»
9. «Desert Plains»
10. «Rock You All Around the World»
11. «The Hellion/Electric Eye»
12. «Turbo Lover»
13. «Freewheel Burning»
14. «The Green Manalishi (With the Two-Pronged Crown)»
15. «Parental Guidance»
16. «Living After Midnight»
17. «You’ve Got Another Thing Comin'»
18. «Hell Bent for Leather»
19. «Metal Gods»

BBC Performances:

1. «Rocka Rolla» — Old Grey Whistle Test 25/04/75
2. «Dreamer Deceiver» — Old Grey Whistle Test 25/04/75
3. «Take on the World» — Top of The Pops 25/01/79
4. «Evening Star» — Top of The Pops 17/05/79
5. «Living After Midnight» — Top of The Pops 27/03/80
6. «United» — Top of The Pops 28/08/80
Title: Judas Priest - Electric Eye
Size: 7.38 Gb ( 7 743 612,00 KBytes ) - DVD-9
Enabled regions: 1, 2, 3, 4, 5, 6, 7, 8

VTS_01 :
Play Length: 00:00:33
Video: PAL 4:3 (720x576) VBR
Audio:
English (Dolby AC3, 2 ch)

VTS_02 :
Play Length: 01:33:15+00:53:34
Video: PAL 4:3 (720x576) VBR
Audio:
English, AC3, 3/2 (L,C,R,SL,SR)+LFE ch, 448 kbps, Delay 0 mSec
English, AC3, 2/0 (L,R) ch, 256 kbps, Delay 0 mSec

VTS_03 :
Play Length: 00:03:16
Video: PAL 4:3 (720x576) VBR
Audio:
English (Dolby AC3, 2 ch)

VTS_04 :
Play Length: 00:06:28
Video: PAL 4:3 (720x576) VBR
Audio:
English (Dolby AC3, 2 ch)

VTS_05 :
Play Length: 00:02:21
Video: PAL 4:3 (720x576) VBR
Audio:
English (Dolby AC3, 2 ch)

VTS_06 :
Play Length: 00:02:39
Video: PAL 4:3 (720x576) VBR
Audio:
Not specified (Dolby AC3, 2 ch)

VTS_07 :
Play Length: 00:03:20
Video: PAL 4:3 (720x576) VBR
Audio:
English (Dolby AC3, 2 ch)

VTS_08 :
Play Length: 00:03:10
Video: PAL 4:3 (720x576) VBR
Audio:
English (Dolby AC3, 2 ch)
Общее
Полное имя: D:\Torrents\Download\Judas Priest - Electric Eye\VIDEO_TS\VTS_02_1.VOB
Формат: MPEG-PS
Размер файла: 1024 Мбайт
Продолжительность: 24 м.
Общий поток: 5956 Кбит/сек

Видео
Идентификатор: 224 (0xE0)
Формат: MPEG Video
Версия формата: Version 2
Профиль формата: Main@Main
Параметр BVOP формата: Да
Параметр матрицы формата: По умолчанию
Продолжительность: 24 м.
Вид битрейта: Переменный
Битрейт: 5133 Кбит/сек
Номинальный битрейт: 9800 Кбит/сек
Ширина: 720 пикс.
Высота: 576 пикс.
Соотношение сторон: 4:3
Частота кадров: 25,000 кадр/сек
Стандарт вещания: PAL
Цветовое пространство: YUV
Подвыборка цветности: 4:2:0
Битовая глубина: 8 бит
Тип развёртки: Чересстрочная
Порядок развёртки: Верхнее поле первое
Метод сжатия: С потерями
Бит/(Пиксели*Кадры): 0.495
Размер потока: 883 Мбайт (86%)

Аудио #1
Идентификатор: 128 (0x80)
Формат: AC-3
Формат/Информация: Audio Coding 3
Расширение режима: CM (complete main)
Продолжительность: 24 м.
Вид битрейта: Постоянный
Битрейт: 448 Кбит/сек
Каналы: 6 каналов
Расположение каналов: Front: L C R, Side: L R, LFE
Частота: 48,0 КГц
Битовая глубина: 16 бит
Метод сжатия: С потерями
Размер потока: 77,0 Мбайт (8%)

Аудио #2
Идентификатор: 129 (0x81)
Формат: AC-3
Формат/Информация: Audio Coding 3
Расширение режима: CM (complete main)
Продолжительность: 24 м.
Вид битрейта: Постоянный
Битрейт: 256 Кбит/сек
Каналы: 2 канала
Расположение каналов: Front: L R
Частота: 48,0 КГц
Битовая глубина: 16 бит
Метод сжатия: С потерями
Размер потока: 44,0 Мбайт (4%)

Меню















[b]Поделиться:




реклама партнёра


Вернуться к началу
 Профиль  
 
   Похожие торренты   Автор   Торрент   Размер 
В этой теме нет новых непрочитанных сообщений. Judas Priest - Epitaph (Live) [2013, Heavy Metal, MP3]

PriZraK

0 | 1

321.77 МБ

В этой теме нет новых непрочитанных сообщений. Judas Priest - Redeemer of Souls (Single) [29.04.2014, Heavy Metal, MP3]

PriZraK

1 | 1

9.38 МБ

В этой теме нет новых непрочитанных сообщений. Judas Priest - March of the Damned (Single) [19.05.2014, Heavy Metal, MP3]

PriZraK

2 | 2

7.87 МБ

В этой теме нет новых непрочитанных сообщений. Judas Priest - Redeemer Of Souls (Deluxe Edition) [2014, Heavy Metal, MP3]

PriZraK

25 | 3

191.96 МБ

В этой теме нет новых непрочитанных сообщений. Judas Priest - Greatest Hits (2CD) [2012, Heavy Metal, Hard Rock, MP3]

PriZraK

0 | 1

354.42 МБ

В этой теме нет новых непрочитанных сообщений. Judas Priest - Screaming For Vengeance (Special 30th Anniversary Edition) [2012, Heavy Metal, MP3]

PriZraK

0 | 1

162.83 МБ

В этой теме нет новых непрочитанных сообщений. VA - Tribute To Judas Priest - Collection (14 CD) [1996-2010, Heavy, Power, Black, Progressive Feath, Thrash, Golk, Industrial Metal, MP3]

PriZraK

4 | 5

1.57 ГБ


Начать новую тему Ответить на тему  [ 1 сообщение ] 




Для Мосгорсуда, Роскомнадзора и рекламодателей:: mosgorsud-torrent[собачка]yandex.ru