Торрент файл
скачать торрент магнет ссылка Добавлен: 08 янв 2012, 11:28
Размер: 2.23 ГБ
Сидеров: 0
Личеров: 12
Автор

СообщениеДобавлено: 08 янв 2012, 11:28 

Не в сети
Зам. Админа
Аватара пользователя
Дата регистрации:
02 дек 2010, 12:39
Спасибо: 12707 / 214
Сообщения: 27959
Черный кофе - Брать живьём!

Формат: DVD5, DVD Video, MPEG2, AC3
Песня: Брать живьём!
Жанр: Heavy Metall
Продолжительность: 01:24:53
Год выпуска: 2005

Видео: 720x576 (PAL 4:3), 25 fps, MPEG-2, ~3193 kbps avg, 0.308 bit/pixel
Аудио: 48 kHz, AC-3, 2 ch, 192.00 kbps avg

Доп. информация: Чёрный кофе — русская хеви-метал-группа. Основатель, гитарист и вокалист группы — Дмитрий Варшавский. Чёрный кофе - это культовая группа ни в комментариях, ни в особом представлении не нуждается. Этот музыкальный коллектив, собиравший и собирающий на свои концерты аншлаги в любой момент.
01 Ночной ястреб
02 Владимирская Русь
03 Зимний портрет
04 Церквушки
05 Радуга
06 Краски
07 Слово
08 Вольному воля
09 Светлый металл
10 Черный кофе

Бонус:
01 Плачь о радости
02 Листья
03 Golden Lady (clip)
04 Это рок
05 Живи и надейся

Общее
Формат: MPEG-PS
Общий поток: 3453 Кбит/сек

Видео
Идентификатор: 224 (0xE0)
Формат: MPEG Video
Версия формата: Version 2
Профиль формата: Main@Main
Параметр BVOP формата: Да
Параметр матрицы формата: По умолчанию
Параметры GOP формата: M=3, N=13
Вид битрейта: Переменный
Битрейт: 3193 Кбит/сек
Номинальный битрейт: 9008 Кбит/сек
Ширина: 720 пикс.
Высота: 576 пикс.
Соотношение сторон: 4:3
Частота кадров: 25,000 кадр/сек
Стандарт вещания: PAL
Цветовое пространство: YUV
Подвыборка цветности: 4:2:0
Битовая глубина: 8 бит
Тип развёртки: Прогрессивная
Метод сжатия: С потерями
Бит/(Пиксели*Кадры): 0.308
Размер потока: 947 Мбайт (92%)

Аудио
Идентификатор: 128 (0x80)
Формат: AC-3
Формат/Информация: Audio Coding 3
Расширение режима: CM (complete main)
Вид битрейта: Постоянный
Битрейт: 192 Кбит/сек
Канал(ы): 2 канала(ов)
Расположение каналов: Front: L R
Частота: 48,0 КГц
Битовая глубина: 16 бит
Метод сжатия: С потерями
Размер потока: 56,9 Мбайт (6%)












Поделиться:



Вернуться к началу
 Профиль  
 
   Похожие торренты   Автор   Торрент   Размер 
В этой теме нет новых непрочитанных сообщений. Brittney Skye - Пленных не брать / Take No Prisoners (2004) DVDRip

zorgi

0 | 1

582.93 МБ

В этой теме нет новых непрочитанных сообщений. Не брать живым / Green Zone [боевик, триллер, военный, 2010] Blu-ray CEE 1080p, Dub

salma3

0 | 0

41.3 ГБ

В этой теме нет новых непрочитанных сообщений. KleoModel - Сексуальная крошка обожает брать в рот и трахаться раком / Sexy Babe Loves to Suck Cock and Doggystyle Fuck (2021) CAMRip 1080p

zorgi

24 | 10

886.57 МБ

В этой теме нет новых непрочитанных сообщений. KleoModel - Сексуальная малышка любит брать в рот и трахаться по-собачьи / Sexy Babe Loves to Suck Cock and Doggystyle Fuck (2021) CAMRip 720p

zorgi

4 | 0

654.15 МБ

В этой теме нет новых непрочитанных сообщений. Bianca - Узкий черный вход / Tight Backdoor (2013) WEB-DLRip 720p

zorgi

73 | 5

397.84 МБ

В этой теме нет новых непрочитанных сообщений. Чёрный корсар / Il corsaro nero [Боевик, комедия, приключения, 1971] BDRip, Mvo

salma3

5 | 1

1.46 ГБ

В этой теме нет новых непрочитанных сообщений. Чёрный список / The Blacklist [08x01-06 из 08] [Драма, детектив, 2020] WEB-DLRip, Mvo [LostFilm]

salma3

6 | 7

2.94 ГБ


Начать новую тему Ответить на тему  [ 1 сообщение ] 




Для Мосгорсуда, Роскомнадзора и рекламодателей:: rstracker[собака]yandex.ru
cron
cron