Торрент файл
скачать торрент магнет ссылка Добавлен: 08 янв 2012, 11:28
Размер: 2.23 ГБ
Сидеров: 0
Личеров: 11
Автор

СообщениеДобавлено: 08 янв 2012, 11:28 

Не в сети
Зам. Админа
Аватара пользователя
Дата регистрации:
02 дек 2010, 12:39
Спасибо: 12623 / 214
Сообщения: 28012
Черный кофе - Брать живьём!

Формат: DVD5, DVD Video, MPEG2, AC3
Песня: Брать живьём!
Жанр: Heavy Metall
Продолжительность: 01:24:53
Год выпуска: 2005

Видео: 720x576 (PAL 4:3), 25 fps, MPEG-2, ~3193 kbps avg, 0.308 bit/pixel
Аудио: 48 kHz, AC-3, 2 ch, 192.00 kbps avg

Доп. информация: Чёрный кофе — русская хеви-метал-группа. Основатель, гитарист и вокалист группы — Дмитрий Варшавский. Чёрный кофе - это культовая группа ни в комментариях, ни в особом представлении не нуждается. Этот музыкальный коллектив, собиравший и собирающий на свои концерты аншлаги в любой момент.
01 Ночной ястреб
02 Владимирская Русь
03 Зимний портрет
04 Церквушки
05 Радуга
06 Краски
07 Слово
08 Вольному воля
09 Светлый металл
10 Черный кофе

Бонус:
01 Плачь о радости
02 Листья
03 Golden Lady (clip)
04 Это рок
05 Живи и надейся

Общее
Формат: MPEG-PS
Общий поток: 3453 Кбит/сек

Видео
Идентификатор: 224 (0xE0)
Формат: MPEG Video
Версия формата: Version 2
Профиль формата: Main@Main
Параметр BVOP формата: Да
Параметр матрицы формата: По умолчанию
Параметры GOP формата: M=3, N=13
Вид битрейта: Переменный
Битрейт: 3193 Кбит/сек
Номинальный битрейт: 9008 Кбит/сек
Ширина: 720 пикс.
Высота: 576 пикс.
Соотношение сторон: 4:3
Частота кадров: 25,000 кадр/сек
Стандарт вещания: PAL
Цветовое пространство: YUV
Подвыборка цветности: 4:2:0
Битовая глубина: 8 бит
Тип развёртки: Прогрессивная
Метод сжатия: С потерями
Бит/(Пиксели*Кадры): 0.308
Размер потока: 947 Мбайт (92%)

Аудио
Идентификатор: 128 (0x80)
Формат: AC-3
Формат/Информация: Audio Coding 3
Расширение режима: CM (complete main)
Вид битрейта: Постоянный
Битрейт: 192 Кбит/сек
Канал(ы): 2 канала(ов)
Расположение каналов: Front: L R
Частота: 48,0 КГц
Битовая глубина: 16 бит
Метод сжатия: С потерями
Размер потока: 56,9 Мбайт (6%)












Поделиться:




реклама партнёра


Вернуться к началу
 Профиль  
 
   Похожие торренты   Автор   Торрент   Размер 
В этой теме нет новых непрочитанных сообщений. Чёрный Кофе - Осенний Порыв (Heavy Metal, 2015) MP3

Aleksandr.ru

684 | 44

111.89 МБ

В этой теме нет новых непрочитанных сообщений. Чёрный Обелиск - Революция (Heavy Metal. 2015) MP3

Aleksandr.ru

95 | 3

79.59 МБ

В этой теме нет новых непрочитанных сообщений. Собчак живьём. Владимир Познер [эфир от 24.12] [2014, ТВ-шоу, интервью, информация, WEBRip 720p]

Nickolas3435

403 | 14

532.62 МБ

В этой теме нет новых непрочитанных сообщений. Черный ящик / La Boîte noire [триллер, детектив, 2005] HDRip, Mvo

salma3

939 | 281

1.73 ГБ

В этой теме нет новых непрочитанных сообщений. В Филадельфии всегда солнечно / It's Always Sunny in Philadelphia [S01-11] [комедия, чёрный юмор, 2005-2016] HDTVRip, WEB-DLRip, Mvo [LostFilm]

salma3

25 | 45

37.06 ГБ

В этой теме нет новых непрочитанных сообщений. Sex, кофе, сигареты [Драма, комедия, 2014] WEB-DL 720p

Dracon

5 | 3

2.57 ГБ

В этой теме нет новых непрочитанных сообщений. Sex, кофе, сигареты [Драма, комедия, 2014] WEB-DLRip

Dracon

1970 | 63

1.36 ГБ


Начать новую тему Ответить на тему  [ 1 сообщение ] 




Для Мосгорсуда, Роскомнадзора и рекламодателей:: mosgorsud-torrent[собачка]yandex.ru