Торрент файл
скачать торрент магнет ссылка Добавлен: 08 янв 2012, 11:27
Размер: 3.13 ГБ
Сидеров: 1
Личеров: 6
Автор

СообщениеДобавлено: 08 янв 2012, 11:27 

Не в сети
Зам. Админа
Аватара пользователя
Дата регистрации:
02 дек 2010, 12:39
Спасибо: 12461 / 214
Сообщения: 27968
Черный кофе - Концерт в Мадриде


Формат: DVD5, DVD Video, MPEG2, MP2
Песня: Концерт в Мадриде
Жанр: Heavy Metall
Продолжительность: 00:59:49
Год выпуска: 13 мая 1988 года

Видео: 704x576 (PAL 4:3), 25 fps, MPEG-2, ~5480 kbps avg, 0.541 bit/pixel
Аудио: 48 kHz, МР-2, 2 ch, 384.00 kbps avg

Доп. информация: О концерте: Чёрный кофе — русская хеви-метал-группа. Основатель, гитарист и вокалист группы —Дмитрий Варшавский. Историческое выступление группы "Чёрный Кофе" в Мадриде 13 мая 1988 года.
Качество:
- релиз выполнен с VHS-Rip достаточно слабого качества
- звук отфилтровал с подавлением шумов, но голоса почти не слышно (в релиз вложена звуковая дорожка, если кто-то сможет исправить, буду рад заменить и перезалить релиз)
- 1, 3, 4 песни - не полностью
- 5, 13 песни - местами полное проподание звука

1. Переступи порог
2. Знамя мира
3. Владимирская Русь
4. Жизни рассвет
5. Незнакомец
6. Листья
7. Я ищу...
8. Мой дом
9. Где ответ
10. Звёздный водоём
11. Вольному — воля
12. Зимний портрет
13. Барабанное соло Сергея Чернякова
14. Чёрный кофе
15. Это рок
16. Светлый металл

Общее
Формат: MPEG-PS
Общий поток: 5983 Кбит/сек

Видео
Идентификатор: 224 (0xE0)
Формат: MPEG Video
Версия формата: Version 2
Профиль формата: Main@Main
Параметр BVOP формата: Да
Параметр матрицы формата: По умолчанию
Параметры GOP формата: M=3, N=15
Вид битрейта: Переменный
Битрейт: 5480 Кбит/сек
Номинальный битрейт: 8000 Кбит/сек
Ширина: 704 пикс.
Высота: 576 пикс.
Соотношение сторон: 4:3
Частота кадров: 25,000 кадр/сек
Стандарт вещания: PAL
Цветовое пространство: YUV
Подвыборка цветности: 4:2:0
Битовая глубина: 8 бит
Тип развёртки: Прогрессивная
Метод сжатия: С потерями
Бит/(Пиксели*Кадры): 0.541
Размер потока: 938 Мбайт (92%)

Аудио
Идентификатор: 192 (0xC0)
Формат: MPEG Audio
Версия формата: Version 1
Профиль формата: Layer 2
Вид битрейта: Постоянный
Битрейт: 384 Кбит/сек
Канал(ы): 2 канала(ов)
Частота: 48,0 КГц
Метод сжатия: С потерями
Размер потока: 65,7 Мбайт (6%)












Поделиться:




реклама партнёра


Вернуться к началу
 Профиль  
 
   Похожие торренты   Автор   Торрент   Размер 
В этой теме нет новых непрочитанных сообщений. Чёрный Кофе - Осенний Порыв (Heavy Metal, 2015) MP3

Aleksandr.ru

684 | 44

111.89 МБ

В этой теме нет новых непрочитанных сообщений. Песня года 2015 [01-02 из 02] (Россия) [Поп, ТВ-Шоу, Концерт, 2016] HDTVRip

Dracon

525 | 119

4.59 ГБ

В этой теме нет новых непрочитанных сообщений. Песня года [01-02 из 02] (Россия) [Концерт, музыкальноe шоу, 2015] HDTV 1080i

Dracon

177 | 26

17.9 ГБ

В этой теме нет новых непрочитанных сообщений. VA - Metall Attack vol.1 [2013, Metal ,Heavy Metal, MP3]

PriZraK

0 | 2

233.01 МБ

В этой теме нет новых непрочитанных сообщений. Черный орел / Black Eagle [Боевик, драма, 1988] BDRip 720p, Mvo+Avo [Director's Cut]

salma3

37 | 4

4.37 ГБ

В этой теме нет новых непрочитанных сообщений. Шансон года - 2015 (Россия) [Тв-Шоу, музыкальный концерт, 01/05/2015] SATRip

Dracon

10 | 6

2.42 ГБ

В этой теме нет новых непрочитанных сообщений. Сектор Газа - Концерт в Воткинске 15 октября 1993 года (2011, Remastered by Island) [1993, Punk Rock, MP3]

PriZraK

1 | 3

205 МБ


Начать новую тему Ответить на тему  [ 1 сообщение ] 




Для Мосгорсуда, Роскомнадзора и рекламодателей:: mosgorsud-torrent[собачка]yandex.ru