Торрент файл
скачать торрент магнет ссылка Добавлен: 08 янв 2012, 11:27
Размер: 3.13 ГБ
Сидеров: 1
Личеров: 6
Автор

СообщениеДобавлено: 08 янв 2012, 11:27 

Не в сети
Зам. Админа
Аватара пользователя
Дата регистрации:
02 дек 2010, 12:39
Спасибо: 12707 / 214
Сообщения: 27959
Черный кофе - Концерт в Мадриде


Формат: DVD5, DVD Video, MPEG2, MP2
Песня: Концерт в Мадриде
Жанр: Heavy Metall
Продолжительность: 00:59:49
Год выпуска: 13 мая 1988 года

Видео: 704x576 (PAL 4:3), 25 fps, MPEG-2, ~5480 kbps avg, 0.541 bit/pixel
Аудио: 48 kHz, МР-2, 2 ch, 384.00 kbps avg

Доп. информация: О концерте: Чёрный кофе — русская хеви-метал-группа. Основатель, гитарист и вокалист группы —Дмитрий Варшавский. Историческое выступление группы "Чёрный Кофе" в Мадриде 13 мая 1988 года.
Качество:
- релиз выполнен с VHS-Rip достаточно слабого качества
- звук отфилтровал с подавлением шумов, но голоса почти не слышно (в релиз вложена звуковая дорожка, если кто-то сможет исправить, буду рад заменить и перезалить релиз)
- 1, 3, 4 песни - не полностью
- 5, 13 песни - местами полное проподание звука

1. Переступи порог
2. Знамя мира
3. Владимирская Русь
4. Жизни рассвет
5. Незнакомец
6. Листья
7. Я ищу...
8. Мой дом
9. Где ответ
10. Звёздный водоём
11. Вольному — воля
12. Зимний портрет
13. Барабанное соло Сергея Чернякова
14. Чёрный кофе
15. Это рок
16. Светлый металл

Общее
Формат: MPEG-PS
Общий поток: 5983 Кбит/сек

Видео
Идентификатор: 224 (0xE0)
Формат: MPEG Video
Версия формата: Version 2
Профиль формата: Main@Main
Параметр BVOP формата: Да
Параметр матрицы формата: По умолчанию
Параметры GOP формата: M=3, N=15
Вид битрейта: Переменный
Битрейт: 5480 Кбит/сек
Номинальный битрейт: 8000 Кбит/сек
Ширина: 704 пикс.
Высота: 576 пикс.
Соотношение сторон: 4:3
Частота кадров: 25,000 кадр/сек
Стандарт вещания: PAL
Цветовое пространство: YUV
Подвыборка цветности: 4:2:0
Битовая глубина: 8 бит
Тип развёртки: Прогрессивная
Метод сжатия: С потерями
Бит/(Пиксели*Кадры): 0.541
Размер потока: 938 Мбайт (92%)

Аудио
Идентификатор: 192 (0xC0)
Формат: MPEG Audio
Версия формата: Version 1
Профиль формата: Layer 2
Вид битрейта: Постоянный
Битрейт: 384 Кбит/сек
Канал(ы): 2 канала(ов)
Частота: 48,0 КГц
Метод сжатия: С потерями
Размер потока: 65,7 Мбайт (6%)












Поделиться:



Вернуться к началу
 Профиль  
 
   Похожие торренты   Автор   Торрент   Размер 
В этой теме нет новых непрочитанных сообщений. Marc Dorcel - Женщина в черном / La femme en noir (1988) DVD5

zorgi

0 | 0

4.33 ГБ

В этой теме нет новых непрочитанных сообщений. Понятная политика / Фейки и абсурды Мая [30.05.2022, Информационно-аналитическая программа, SATRip]

zorgi

0 | 0

395.15 МБ

В этой теме нет новых непрочитанных сообщений. Клуб редакторов: 9 Мая - Нацизм в Европе [22.04.2022, Информационно-аналитическая программа, SATRip]

zorgi

0 | 0

700.38 МБ

В этой теме нет новых непрочитанных сообщений. До Нового года осталось… [Мелодрама, комедия, 2019] WEB-DLRip [iTunes]

salma3

7 | 4

1.37 ГБ

В этой теме нет новых непрочитанных сообщений. Bianca - Узкий черный вход / Tight Backdoor (2013) WEB-DLRip 720p

zorgi

73 | 5

397.84 МБ

В этой теме нет новых непрочитанных сообщений. Чёрный корсар / Il corsaro nero [Боевик, комедия, приключения, 1971] BDRip, Mvo

salma3

5 | 1

1.46 ГБ

В этой теме нет новых непрочитанных сообщений. Черный ангел / L'ange noir [триллер, драма, криминал, 1994] WEB-DLRip, Mvo

salma3

0 | 0

1.47 ГБ


Начать новую тему Ответить на тему  [ 1 сообщение ] 




Для Мосгорсуда, Роскомнадзора и рекламодателей:: rstracker[собака]yandex.ru
cron