Торрент файл
скачать торрент магнет ссылка Добавлен: 08 янв 2012, 11:24
Размер: 59.32 МБ
Сидеров: 2
Личеров: 2
Автор

СообщениеДобавлено: 08 янв 2012, 11:24 

Не в сети
Зам. Админа
Аватара пользователя
Дата регистрации:
02 дек 2010, 12:39
Спасибо: 12461 / 214
Сообщения: 27968
Meek Mill feat. Rick Ross - Tupac Back

Формат: HDTV, MPEG, AVC, AAC
Песня: Tupac Back
Жанр: Rap, Hip-Hop
Продолжительность: 00:03:54
Год выпуска: 2011
Видео: 1280x720 (16:9), 24fps, H264, 4 532 Kbps, 0.090 bit/pixel
Аудио: 44 kHz, AAC, 2ch, ~144 kbps
Доп.информация:






General
Complete name : D:\Rick Ross - Tupac Back feat. Meek Mill (Official Video).mp4
Format : MPEG-4
Format profile : Base Media / Version 2
Codec ID : mp42
File size : 59.3 MiB
Duration : 3mn 53s
Overall bit rate : 2 131 Kbps
Encoded date : UTC 2011-06-16 17:03:00
Tagged date : UTC 2011-06-16 17:03:00
gsst : 0
gstd : 233591
gssd : BC22C2386MH1311981274307659
gshh : v11.lscache8.c.youtube.com

Video
ID : 1
Format : AVC
Format/Info : Advanced Video Codec
Format profile : High@L3.1
Format settings, CABAC : Yes
Format settings, ReFrames : 1 frame
Format settings, GOP : M=1, N=60
Codec ID : avc1
Codec ID/Info : Advanced Video Coding
Duration : 3mn 53s
Bit rate : 1 984 Kbps
Maximum bit rate : 4 532 Kbps
Width : 1 280 pixels
Height : 720 pixels
Display aspect ratio : 16:9
Frame rate mode : Variable
Frame rate : 23.976 fps
Minimum frame rate : 17.241 fps
Maximum frame rate : 24.390 fps
Color space : YUV
Chroma subsampling : 4:2:0
Bit depth : 8 bits
Scan type : Progressive
Bits/(Pixel*Frame) : 0.090
Stream size : 55.2 MiB (93%)
Tagged date : UTC 2011-06-16 17:03:03

Audio
ID : 2
Format : AAC
Format/Info : Advanced Audio Codec
Format profile : LC
Codec ID : 40
Duration : 3mn 53s
Bit rate mode : Variable
Bit rate : 144 Kbps
Maximum bit rate : 236 Kbps
Channel(s) : 2 channels
Channel positions : Front: L R
Sampling rate : 44.1 KHz
Compression mode : Lossy
Stream size : 3.93 MiB (7%)
Title : IsoMedia File Produced by Google, 5-11-2011
Encoded date : UTC 2011-06-16 17:03:02
Tagged date : UTC 2011-06-16 17:03:03

Поделиться:




реклама партнёра


Вернуться к началу
 Профиль  
 
   Похожие торренты   Автор   Торрент   Размер 
В этой теме нет новых непрочитанных сообщений. Young Fire - Back 2 Back [Pop, Disco, 2007] MP3, 192kbps

Dracon

5 | 5

63.11 МБ

В этой теме нет новых непрочитанных сообщений. Спина к спине / Back to Back [Боевик, 1996] DVDRip, Dvo

salma3

44 | 5

1.46 ГБ

В этой теме нет новых непрочитанных сообщений. Jon Anderson & Rick Wakeman - The Living Tree In Concert: Part One [2011, Symphonic Progressive, MP3]

PriZraK

0 | 1

126.29 МБ

В этой теме нет новых непрочитанных сообщений. Jenna Ross / Sloppy Firsts (2016) HD 720p

Dile-1

1 | 0

222.65 МБ

В этой теме нет новых непрочитанных сообщений. Teo Ross - Road to Neverland [2012, Progressive Metal, Instrumentals, MP3]

PriZraK

0 | 1

99.75 МБ

В этой теме нет новых непрочитанных сообщений. [18YearsOld.com / PornPros.com] Jenna J Ross (Reading By Sunlight / 21.02.14 ) [2014 г., All Sex]

Dile-1

4 | 3

189.39 МБ

В этой теме нет новых непрочитанных сообщений. Выбор / The Choice (Росс Кац / Ross Katz) [2016г., драма, мелодрама, HDRip] MVO

Alfredovich

0 | 0

1.47 ГБ


Начать новую тему Ответить на тему  [ 1 сообщение ] 




Для Мосгорсуда, Роскомнадзора и рекламодателей:: mosgorsud-torrent[собачка]yandex.ru