Торрент файл
скачать торрент магнет ссылка Добавлен: 08 янв 2012, 11:24
Размер: 3.2 ГБ
Сидеров: 1
Личеров: 5
Автор

СообщениеДобавлено: 08 янв 2012, 11:24 

Не в сети
Зам. Админа
Аватара пользователя
Дата регистрации:
02 дек 2010, 12:39
Спасибо: 12707 / 214
Сообщения: 27959
Def Leppard - Historia / In The Round, In Your Face

Формат: DVDRip, AVI, DivX, MP3
Песня: Historia / In The Round, In Your Face
Жанр: Rock
Продолжительность: 02:57:00
Год выпуска: 2001
Видео: MPEG 4 VIDEO, 720*480 (NTSC 4:3), 25.0 fps, 1997 kbps avg, 0,231 bit/pixel
Аудио: 44,1 khz, MP 3, 2 ch, 192 kbps avg
Доп. информация: Рип DVD - 9. HISTORIA (Видеоклипы -1980-1988 годов.)

IN THE ROUND IN YOUR FACE (Концерт, состоявшийся в McNichols Arena in Denver, Colorado, USA -12/13.02.1988)

Бонус: интервью музыкантов, видеоклипы 1996 - 1999 годов.
HISTORIA

1. Hello America
2. Let It Go
3. High 'n' Dry
4. Bringin' On the Heartbreak (Version 1 with Pete Willis)
5. Photograph
6. Rock of Ages
7. Foolin'
8. Too Late for Love
9. Rock! Rock! ('Til You Drop)
10. Bringin' On the Heartbreak (Version 2 with Phil Collen)
11. Me and My Wine
12. Women
13. Animal
14. Pour Some Sugar on Me (U.K. Version)
15. Hysteria
16. Armageddon It (Live)
17. Pour Some Sugar on Me (U.S. version)
18. Love Bites

IN THE ROUND IN YOUR FACE

1. Stagefright
2. Rock! Rock! ('Til You Drop)
3. Women
4. Too Late for Love
5. Hysteria
6. Gods of War
7. Die Hard the Hunter
8. Bringin' On the Heartbreak
9. Foolin'
10. Armageddon It
11. Animal
12. Pour Some Sugar on Me
13. Rock of Ages
14. Photograph

Бонус: видеоклипы + интервью

Slang
Work It Out
All I Want Is Everything
Goodbye
Promises
Общее
Полное имя: D:\Video\Def Leppard - Historia - In the Round, In Your Face\Historia.avi
Формат: AVI
Формат/Информация: Audio Video Interleave
Профиль формата: OpenDML
Размер файла: 1,32 Гбайт
Продолжительность: 1 ч. 25 м.
Общий поток: 2203 Кбит/сек
Программа кодирования: Lavf51.12.1

Видео
Идентификатор: 0
Формат: MPEG-4 Visual
Профиль формата: Simple@L1
Параметр BVOP формата: Нет
Параметр QPel формата: Нет
Параметр GMC формата: Без точки перехода
Параметр матрицы формата: Default (H.263)
Идентификатор кодека: DX50
Идентификатор кодека/Подсказка: DivX 5
Продолжительность: 1 ч. 25 м.
Битрейт: 1997 Кбит/сек
Ширина: 720 пикс.
Высота: 480 пикс.
Соотношение сторон: 4:3
Частота кадров: 25,000 кадр/сек
Стандарт вещания: NTSC
Цветовое пространство: YUV
Подвыборка цветности: 4:2:0
Битовая глубина: 8 бит
Тип развёртки: Прогрессивная
Метод сжатия: С потерями
Бит/(Пиксели*Кадры): 0.231
Размер потока: 1,20 Гбайт (91%)
Библиотека кодирования: Lavc51.40.4

Аудио
Идентификатор: 1
Формат: MPEG Audio
Версия формата: Version 1
Профиль формата: Layer 3
Режим: Joint stereo
Расширение режима: MS Stereo
Идентификатор кодека: 55
Идентификатор кодека/Подсказка: MP3
Продолжительность: 20 м.
Вид битрейта: Постоянный
Битрейт: 192 Кбит/сек
Каналы: 2 канала
Частота: 44,1 КГц
Метод сжатия: С потерями
Размер потока: 28,7 Мбайт (2%)
Выравнивание: Соединение по промежуткам
Продолжительность промежутка: 107мс. (2,68 видеокадра)
Библиотека кодирования: LAME3.97








[b]Поделиться:



Вернуться к началу
 Профиль  
 
   Похожие торренты   Автор   Торрент   Размер 
В этой теме нет новых непрочитанных сообщений. Belladonna - Поклонение заднице 1 / Ass Worship 1 (2001) DVDRip

zorgi

8 | 1

319.33 МБ

В этой теме нет новых непрочитанных сообщений. На связи / On the Line [мелодрама, комедия, 2001] DVDRip, Mvo

salma3

1 | 0

1.37 ГБ

В этой теме нет новых непрочитанных сообщений. Claudia Ricci - Тёмная сторона / Dark Side (2001) DVDRip

zorgi

0 | 0

265.21 МБ

В этой теме нет новых непрочитанных сообщений. Round Ass DPs / Двойной Трах Для Круглых Задниц (Proxy Paige, Evil Angel) [2019 г., Anal, Double Penetration, European, Gangbang, Gonzo, International, Threesomes, DVDRip] (Barbie Sins, Angel Emily, Mike Angelo, Alysa Gap, Christian Clay, C

salma3

0 | 2

2.12 ГБ

В этой теме нет новых непрочитанных сообщений. Миленькие штучки / Les Jolies Choses [драма, 2001] DVDRip, Mvo

salma3

0 | 0

1.46 ГБ

В этой теме нет новых непрочитанных сообщений. Миленькие штучки / Les Jolies Choses [драма, 2001] DVDRip-AVC, Mvo

salma3

0 | 0

1.46 ГБ

В этой теме нет новых непрочитанных сообщений. [BrattyMILF.com] Lolly Dames - Round Two With My Stepmom (15.04.2022) [All Sex]

zorgi

0 | 1

208.6 МБ


Начать новую тему Ответить на тему  [ 1 сообщение ] 




Для Мосгорсуда, Роскомнадзора и рекламодателей:: rstracker[собака]yandex.ru
cron
cron