Торрент файл
скачать торрент магнет ссылка Добавлен: 08 янв 2012, 11:24
Размер: 3.2 ГБ
Сидеров: 1
Личеров: 5
Автор

СообщениеДобавлено: 08 янв 2012, 11:24 

Не в сети
Зам. Админа
Аватара пользователя
Дата регистрации:
02 дек 2010, 12:39
Спасибо: 12623 / 214
Сообщения: 28012
Def Leppard - Historia / In The Round, In Your Face

Формат: DVDRip, AVI, DivX, MP3
Песня: Historia / In The Round, In Your Face
Жанр: Rock
Продолжительность: 02:57:00
Год выпуска: 2001
Видео: MPEG 4 VIDEO, 720*480 (NTSC 4:3), 25.0 fps, 1997 kbps avg, 0,231 bit/pixel
Аудио: 44,1 khz, MP 3, 2 ch, 192 kbps avg
Доп. информация: Рип DVD - 9. HISTORIA (Видеоклипы -1980-1988 годов.)

IN THE ROUND IN YOUR FACE (Концерт, состоявшийся в McNichols Arena in Denver, Colorado, USA -12/13.02.1988)

Бонус: интервью музыкантов, видеоклипы 1996 - 1999 годов.
HISTORIA

1. Hello America
2. Let It Go
3. High 'n' Dry
4. Bringin' On the Heartbreak (Version 1 with Pete Willis)
5. Photograph
6. Rock of Ages
7. Foolin'
8. Too Late for Love
9. Rock! Rock! ('Til You Drop)
10. Bringin' On the Heartbreak (Version 2 with Phil Collen)
11. Me and My Wine
12. Women
13. Animal
14. Pour Some Sugar on Me (U.K. Version)
15. Hysteria
16. Armageddon It (Live)
17. Pour Some Sugar on Me (U.S. version)
18. Love Bites

IN THE ROUND IN YOUR FACE

1. Stagefright
2. Rock! Rock! ('Til You Drop)
3. Women
4. Too Late for Love
5. Hysteria
6. Gods of War
7. Die Hard the Hunter
8. Bringin' On the Heartbreak
9. Foolin'
10. Armageddon It
11. Animal
12. Pour Some Sugar on Me
13. Rock of Ages
14. Photograph

Бонус: видеоклипы + интервью

Slang
Work It Out
All I Want Is Everything
Goodbye
Promises
Общее
Полное имя: D:\Video\Def Leppard - Historia - In the Round, In Your Face\Historia.avi
Формат: AVI
Формат/Информация: Audio Video Interleave
Профиль формата: OpenDML
Размер файла: 1,32 Гбайт
Продолжительность: 1 ч. 25 м.
Общий поток: 2203 Кбит/сек
Программа кодирования: Lavf51.12.1

Видео
Идентификатор: 0
Формат: MPEG-4 Visual
Профиль формата: Simple@L1
Параметр BVOP формата: Нет
Параметр QPel формата: Нет
Параметр GMC формата: Без точки перехода
Параметр матрицы формата: Default (H.263)
Идентификатор кодека: DX50
Идентификатор кодека/Подсказка: DivX 5
Продолжительность: 1 ч. 25 м.
Битрейт: 1997 Кбит/сек
Ширина: 720 пикс.
Высота: 480 пикс.
Соотношение сторон: 4:3
Частота кадров: 25,000 кадр/сек
Стандарт вещания: NTSC
Цветовое пространство: YUV
Подвыборка цветности: 4:2:0
Битовая глубина: 8 бит
Тип развёртки: Прогрессивная
Метод сжатия: С потерями
Бит/(Пиксели*Кадры): 0.231
Размер потока: 1,20 Гбайт (91%)
Библиотека кодирования: Lavc51.40.4

Аудио
Идентификатор: 1
Формат: MPEG Audio
Версия формата: Version 1
Профиль формата: Layer 3
Режим: Joint stereo
Расширение режима: MS Stereo
Идентификатор кодека: 55
Идентификатор кодека/Подсказка: MP3
Продолжительность: 20 м.
Вид битрейта: Постоянный
Битрейт: 192 Кбит/сек
Каналы: 2 канала
Частота: 44,1 КГц
Метод сжатия: С потерями
Размер потока: 28,7 Мбайт (2%)
Выравнивание: Соединение по промежуткам
Продолжительность промежутка: 107мс. (2,68 видеокадра)
Библиотека кодирования: LAME3.97








[b]Поделиться:




реклама партнёра


Вернуться к началу
 Профиль  
 
   Похожие торренты   Автор   Торрент   Размер 
В этой теме нет новых непрочитанных сообщений. Def Leppard - Def Leppard (Hard-Rock, 2015) MP3

Aleksandr.ru

3356 | 412

126.28 МБ

В этой теме нет новых непрочитанных сообщений. My Face /#My Face / Мое Лицо (MimeFreak / ArchAngel) (Remy LaCroix, Jada Stevens, Maddy O'Reilly, Veruca James, Karmen Karma...) [2015 г., Blowjobs, Cumshots, Facials, Gonzo, DVDRip 396p]

friizze

2 | 3

1.45 ГБ

В этой теме нет новых непрочитанных сообщений. [PervsOnPatrol.com / Mofos.com] Michelle Taylor - Voyeur Boyfriend Likes to Watch (03.11.2017) [POV, Sex, Masturbation, Face Sitting, Face Fuck, 69, Doggystyle]

salma3

21 | 7

285.3 МБ

В этой теме нет новых непрочитанных сообщений. [21Naturals.com / 21Sextury.com] Katy Hill (Face To Face) [09.08.2017 г., Brown Haired, Natural Tits, Tatooed, Oral, Hardcore, Cumshot]

salma3

15 | 5

272.41 МБ

В этой теме нет новых непрочитанных сообщений. [21Naturals.com / 21Sextury.com] Katy Hill (Face To Face) [09.08.2017 г., Brown Haired, Natural Tits, Tatooed, Oral, Hardcore, Cumshot, 720p]

salma3

7 | 2

415.71 МБ

В этой теме нет новых непрочитанных сообщений. [DontBreakMe.com / Mofos.com] Kenzie Kai - Petite Blonde Seduces BFF's Brother (05.09.2017) [Couples Fantasies, Sex, Handjob, Deep Throat, Face Sitting, Face Fuck, Spanking]

salma3

34 | 11

274.42 МБ

В этой теме нет новых непрочитанных сообщений. [CzechVRFetish.com / CzechVR.com] Francys Belle & Katrin Tequila (Czech VR Fetish 082 - Double Face Sitting) [2017 г., Lesbians, Face sitting, Oculus, Virtual Reality, VR]

salma3

9 | 3

4.35 ГБ


Начать новую тему Ответить на тему  [ 1 сообщение ] 




Для Мосгорсуда, Роскомнадзора и рекламодателей:: mosgorsud-torrent[собачка]yandex.ru