Торрент файл
скачать торрент магнет ссылка Добавлен: 08 янв 2012, 11:23
Размер: 45.38 МБ
Сидеров: 2
Личеров: 4
Автор

СообщениеДобавлено: 08 янв 2012, 11:23 

Не в сети
Зам. Админа
Аватара пользователя
Дата регистрации:
02 дек 2010, 12:39
Спасибо: 12623 / 214
Сообщения: 28012
Ice Cube (feat. Dub C) - Chrome & Paint

Формат: DVDRip, AVI, H.264, MP3
Песня: Chrome & Paint
Жанр: Rap
Продолжительность: 00:04:13
Год выпуска: 2006
Видео: 640x480 (4:3), 29.970 fps, H264, 1 300 Kbps, 0.141 bit/pixel
Аудио: 44.1 KHz, MP3, 2 channels, ~ 192 Kbps
Доп.информация:








General
Complete name: D:\Ice_Cube_-_Chrome___Paint_(feat._WC)_(2006)_(DVDRip)_www.respecta.net.avi
Format: AVI
Format/Info: Audio Video Interleave
File size: 45.4 MiB
Duration: 4mn 13s
Overall bit rate: 1 502 Kbps
Writing library: TMPGEnc 4.0 XPress Version. 4.2.3.193

Video
ID: 0
Format: AVC
Format/Info: Advanced Video Codec
Format profile: High@L5.1
Format settings, CABAC: Yes
Format settings, ReFrames: 2 frames
Format settings, GOP: N=1
Codec ID: H264
Duration: 4mn 13s
Bit rate: 1 300 Kbps
Width: 640 pixels
Height: 480 pixels
Display aspect ratio: 4:3
Frame rate: 29.970 fps
Color space: YUV
Chroma subsampling: 4:2:0
Bit depth: 8 bits
Scan type: Progressive
Bits/(Pixel*Frame): 0.141
Stream size: 39.3 MiB (87%)
Writing library: x264 core 53
Encoding settings: cabac=1 / ref=1 / deblock=1:0:0 / analyse=0x3:0x113 / me=hex / subme=5 / brdo=0 / mixed_ref=0 / me_range=16 / chroma_me=1 / trellis=1 / 8x8dct=1 / cqm=0 / deadzone=21,11 / chroma_qp_offset=0 / slices=1 / nr=0 / decimate=1 / mbaff=0 / bframes=2 / b_pyramid=0 / b_adapt=1 / b_bias=0 / direct=2 / wpredb=1 / bime=0 / keyint=250 / keyint_min=25 / scenecut=40 / rc=2pass / bitrate=1300 / ratetol=1.0 / rceq='blurCplx^(1-qComp)' / qcomp=0.60 / qpmin=10 / qpmax=51 / qpstep=4 / cplxblur=20.0 / qblur=0.5 / ip_ratio=1.40 / pb_ratio=1.30

Audio
ID: 1
Format: MPEG Audio
Format version: Version 1
Format profile: Layer 3
Mode: Joint stereo
Mode extension: MS Stereo
Codec ID: 55
Codec ID/Hint: MP3
Duration: 4mn 13s
Bit rate mode: Constant
Bit rate: 192 Kbps
Channel(s): 2 channels
Sampling rate: 44.1 KHz
Compression mode: Lossy
Stream size: 5.80 MiB (13%)
Alignment: Split accross interleaves
Interleave, duration: 250 ms (7.50 video frames)
Interleave, preload duration: 448 ms
Writing library: LAME3.97


Поделиться:




реклама партнёра


Вернуться к началу
 Профиль  
 
   Похожие торренты   Автор   Торрент   Размер 
В этой теме нет новых непрочитанных сообщений. Google Chrome 61.0.3163.100 Stable + Enterprise (2017) РС

salma3

34 | 6

185.69 МБ

В этой теме нет новых непрочитанных сообщений. Google Chrome 61.0.3163.91 Stable + Enterprise (2017) РС

salma3

47 | 13

185.63 МБ

В этой теме нет новых непрочитанных сообщений. Google Chrome 61.0.3163.79 Stable + Enterprise (2017) РС

salma3

19 | 8

185.71 МБ

В этой теме нет новых непрочитанных сообщений. Google Chrome 62.0.3202.94 Stable + Enterprise (2017) РС

salma3

34 | 9

188.12 МБ

В этой теме нет новых непрочитанных сообщений. Time Cube [Arcade, 2015] [Лицензия]

Tobus

2 | 0

13.83 МБ

В этой теме нет новых непрочитанных сообщений. Куб 2: Гиперкуб / Cube 2: Hypercube [фантастика, триллер, 2002] BDRip-AVC, Dvo

salma3

78 | 21

745.36 МБ

В этой теме нет новых непрочитанных сообщений. Куб Зеро / Cube Zero [ужасы, фантастика, триллер, 2004] HDRip-AVC, Mvo

salma3

91 | 24

744.54 МБ


Начать новую тему Ответить на тему  [ 1 сообщение ] 




Для Мосгорсуда, Роскомнадзора и рекламодателей:: mosgorsud-torrent[собачка]yandex.ru