Торрент файл
скачать торрент магнет ссылка Добавлен: 08 янв 2012, 11:22
Размер: 88.07 МБ
Сидеров: 2
Личеров: 3
Автор

СообщениеДобавлено: 08 янв 2012, 11:22 

Не в сети
Зам. Админа
Аватара пользователя
Дата регистрации:
02 дек 2010, 12:39
Спасибо: 12460 / 214
Сообщения: 27968
Ja Rule (feat. Lil' Mo & Vita) - Put It On Me

Формат: DVDRip, AVI, H.264, AC3
Песня: Put It On Me
Жанр: Rap
Продолжительность: 00:04:52
Год выпуска: 2000
Видео: 700x312 (2.25:1), 25 fps, H.264, ~2300 kbps, 0.421 bit/pixel
Аудио: 48 kHz, AC-3, 2 ch, ~ 224 Kbps








General
Unique ID: 251042584905680893004076689398106318169 (0xBCDD0B0C718894938418CBDBEDDA6559)
Complete name: D:\ja_rule_put_it_on_me_feat_lil_mo_vita_[tfile.ru].avi
Format: Matroska
Format version: Version 1
File size: 88.1 MiB
Duration: 4mn 52s
Overall bit rate: 2 527 Kbps
Encoded date: UTC 2010-02-16 15:58:54
Writing application: mkvmerge v2.6.0 ('Kelly watch the Stars') built on Mar 24 2009 15:23:17
Writing library: libebml v0.7.7 + libmatroska v0.8.1

Video
ID: 1
Format: AVC
Format/Info: Advanced Video Codec
Format profile: High@L3.0
Format settings, CABAC: Yes
Format settings, ReFrames: 4 frames
Codec ID: V_MPEG4/ISO/AVC
Duration: 4mn 52s
Bit rate: 2 300 Kbps
Width: 700 pixels
Height: 312 pixels
Display aspect ratio: 2.25:1
Frame rate: 25.000 fps
Color space: YUV
Chroma subsampling: 4:2:0
Bit depth: 8 bits
Scan type: Progressive
Bits/(Pixel*Frame): 0.421
Stream size: 78.5 MiB (89%)
Writing library: x264 core 80 r1376M 3feaec2
Encoding settings: cabac=1 / ref=2 / deblock=1:0:0 / analyse=0x3:0x133 / me=hex / subme=7 / psy=1 / psy_rd=1.0:0.0 / mixed_ref=1 / me_range=16 / chroma_me=1 / trellis=2 / 8x8dct=1 / cqm=0 / deadzone=21,11 / fast_pskip=0 / chroma_qp_offset=-2 / threads=3 / sliced_threads=0 / nr=0 / decimate=1 / mbaff=0 / constrained_intra=0 / bframes=3 / b_pyramid=2 / b_adapt=2 / b_bias=0 / direct=1 / wpredb=1 / wpredp=2 / keyint=250 / keyint_min=25 / scenecut=40 / rc_lookahead=30 / rc=2pass / mbtree=1 / bitrate=2300 / ratetol=1.0 / qcomp=0.60 / qpmin=10 / qpmax=51 / qpstep=4 / cplxblur=20.0 / qblur=0.5 / ip_ratio=1.40 / aq=1:1.00
Language: English

Audio
ID: 2
Format: AC-3
Format/Info: Audio Coding 3
Mode extension: CM (complete main)
Codec ID: A_AC3
Duration: 4mn 52s
Bit rate mode: Constant
Bit rate: 224 Kbps
Channel(s): 2 channels
Channel positions: Front: L R
Sampling rate: 48.0 KHz
Bit depth: 16 bits
Compression mode: Lossy
Stream size: 7.81 MiB (9%)


Поделиться:




реклама партнёра


Вернуться к началу
 Профиль  
 
   Похожие торренты   Автор   Торрент   Размер 
В этой теме нет новых непрочитанных сообщений. Vita Nova - Vita Nova [2013, Symphonic Gothic Metal, MP3]

PriZraK

0 | 1

97.27 МБ

В этой теме нет новых непрочитанных сообщений. Крутая Джорджия / Georgia Rule [драма, мелодрама, комедия, 2007] DVDRip, Dub

salma3

22 | 2

1.45 ГБ

В этой теме нет новых непрочитанных сообщений. Наша жизнь / La nostra vita [драма, 2010] DVDRip, Dvo

salma3

6 | 2

1.47 ГБ

В этой теме нет новых непрочитанных сообщений. Unearth - Watchers of Rule [2014, Metalcore, MP3]

PriZraK

2 | 4

80.47 МБ

В этой теме нет новых непрочитанных сообщений. Fake Heroes - Divide And Rule [2013, Modern Rock, MP3]

PriZraK

0 | 2

89.83 МБ

В этой теме нет новых непрочитанных сообщений. FireWolfe - We Rule The Night [2014, Melodic Heavy Metal, MP3]

PriZraK

22 | 3

106.93 МБ

В этой теме нет новых непрочитанных сообщений. Правило номер 3 / Каталы / Rule No. 3 [Триллер, Детектив, Криминал, 1993] VHSRip, Avo

salma3

4 | 1

1.5 ГБ


Начать новую тему Ответить на тему  [ 1 сообщение ] 




Для Мосгорсуда, Роскомнадзора и рекламодателей:: mosgorsud-torrent[собачка]yandex.ru