Торрент файл
скачать торрент магнет ссылка Добавлен: 08 янв 2012, 11:21
Размер: 2.05 ГБ
Сидеров: 3
Личеров: 3
Автор

СообщениеДобавлено: 08 янв 2012, 11:21 

Не в сети
Зам. Админа
Аватара пользователя
Дата регистрации:
02 дек 2010, 12:39
Спасибо: 12461 / 214
Сообщения: 27968
Defqon.1 - Festival 2010


Формат: DVDRip, AVI, XviD, AC3
Песня: Festival 2010
Жанр: Hardstyle, Techno, Hardcore, Hardtrance, Jumpstyle, Oldskool, French Tek
Продолжительность: 01:48:00
Год выпуска: 2010
Видео: 720x416 pixels, (16:9), XVID, 25.000 fps, 2 257 Kbps,0.301 Bits/Pixel
Аудио: AC-3, 448 Kbps, 6 channels, 48.0 KHz,
Доп. информация:
Defqon.1 - ежегодный Q-dance event, проходящий в местечке Almere Strand под Амстердамом на берегу залива: пиво, красивые девушки и парни, а также прекрасная музыка, которая заставляет танцевать всех, кто находится в этом прекрасном месте. Фестиваль, посвященный таким hard dance стилям, как Hardstyle, Techno, Hardcore, Hardtrance, Jumpstyle, Oldskool, French Tek, получает все большее признание на пляже Альмеры. Это событие происходит в каждую последнюю пятницу июня ежегодно. Позвольте Q-dance расширить ваше сознание с помощью лучшего шоу в мире. За последние 9 лет фестиваль Defqon.1 стал крупнейшим событием в мире hard dance музыки, проходящим на открытом воздухе. Нидерланды сейчас являются эпицентром hardcore сцены – здесь сосредоточены признанные продюсеры, площадки высоко уровня, к тому же здесь находится родной дом всех мероприятий компании Q-dance.


01 Donkey Rollers,
02 Duro,
03 Headhunterz,
04 Killer Clown,
05 Nitrouz,
06 Noisecontrollers,
07 Pavelow,
08 Pendulum,
09 Showtek,
10 The Prophet,
11 Toneshifterz,
12 Wildstylez
и многие другие...







General
Complete name: D:\ИГОРЬ\DefQon.1.Festival.2010.XviD.DVDRip.WestRelizGroup.avi
Format: AVI
Format/Info: Audio Video Interleave
Format profile: OpenDML
File size: 2.05 GiB
Duration: 1h 48mn
Overall bit rate: 2 714 Kbps
Writing application: VirtualDubMod 1.5.4.1 (build 2178/release)
Writing library: VirtualDubMod build 2178/release

Video
ID: 0
Format: MPEG-4 Visual
Format profile: Advanced Simple@L5
Format settings, BVOP: 1
Format settings, QPel: No
Format settings, GMC: No warppoints
Format settings, Matrix: Custom
Codec ID: XVID
Codec ID/Hint: XviD
Duration: 1h 48mn
Bit rate: 2 257 Kbps
Width: 720 pixels
Height: 416 pixels
Display aspect ratio: 16:9
Frame rate: 25.000 fps
Color space: YUV
Chroma subsampling: 4:2:0
Bit depth: 8 bits
Scan type: Progressive
Compression mode: Lossy
Bits/(Pixel*Frame): 0.301
Stream size: 1.71 GiB (83%)
Writing library: XviD 1.2.1 (UTC 2008-12-04)

Audio
ID: 1
Format: AC-3
Format/Info: Audio Coding 3
Mode extension: CM (complete main)
Codec ID: 2000
Duration: 1h 48mn
Bit rate mode: Constant
Bit rate: 448 Kbps
Channel(s): 6 channels
Channel positions: Front: L C R, Side: L R, LFE
Sampling rate: 48.0 KHz
Bit depth: 16 bits
Compression mode: Lossy
Delay relative to video: 26ms
Stream size: 347 MiB (17%)
Alignment: Split accross interleaves
Interleave, duration: 96 ms (2.40 video frames)
Interleave, preload duration: 96 ms
Language: English

[b]Поделиться:




реклама партнёра


Вернуться к началу
 Профиль  
 
   Похожие торренты   Автор   Торрент   Размер 
В этой теме нет новых непрочитанных сообщений. His Statue Falls - Collisions Remixed [2010, Post-Hardcore, Trancecore, Techno, MP3]

PriZraK

0 | 2

67.11 МБ

В этой теме нет новых непрочитанных сообщений. Scooter - The Fifth Chapter [Deluxe Edition] [2014, Techno, House, Hardstyle, FLAC]

Nickolas3435

91 | 8

744.69 МБ

В этой теме нет новых непрочитанных сообщений. [JacquieetMichelTV.net / Indecentes-Voisines.com] Vanessa (Mauricienne en gang-bang !) [07-04-2015 г., Milf, Hardcore, Anal, DP, Group, French, SiteRip 360p]

friizze

0 | 3

309.55 МБ

В этой теме нет новых непрочитанных сообщений. Chunk! No, Captain Chunk! - Pardon My French [2013, Post-Hardcore / Pop-Punk, MP3]

PriZraK

0 | 1

99.62 МБ

В этой теме нет новых непрочитанных сообщений. [DorcelClub.com / Dorcel.com] ANISSA KATE (SUBDUE FRENCH MAID /11.12.2013 г.) [2013, Anal Sex, Hardcore, 540р]

Dile-1

23 | 3

253.88 МБ

В этой теме нет новых непрочитанных сообщений. [JacquieetMichelTV.net / Indecentes-Voisines.com] Soraya (Soraya veille au moral des troupes !) [17-04-2015 г., Milf, All sex, Hardcore, Anal, French, SiteRip 360p]

friizze

1 | 2

417.41 МБ

В этой теме нет новых непрочитанных сообщений. [JacquieetMichelTV.net / Indecentes-Voisines.com] Amanda (Amanda, 26ans, chaude bombasse !) [17-04-2015 г., MIlf, Big Tits, Big Ass, Hardcore, Outdoor, French, SiteRip 360p]

friizze

0 | 2

429.53 МБ


Начать новую тему Ответить на тему  [ 1 сообщение ] 




Для Мосгорсуда, Роскомнадзора и рекламодателей:: mosgorsud-torrent[собачка]yandex.ru