Торрент файл
скачать торрент магнет ссылка Добавлен: 08 янв 2012, 11:20
Размер: 3.77 ГБ
Сидеров: 2
Личеров: 3
Автор

СообщениеДобавлено: 08 янв 2012, 11:20 

Не в сети
Зам. Админа
Аватара пользователя
Дата регистрации:
02 дек 2010, 12:39
Спасибо: 12461 / 214
Сообщения: 27968
Grave Digger - Live At The Rock Machina Festival

Формат: DVD5, DVD Video, MPEG2, PCM
Песня: Live At The Rock Machina Festival
Жанр: Heavy Metal
Продолжительность: 01:01:33
Год выпуска: 2006
Видео: MPEG 2 VIDEO, 720*576( PAL 4:3), 25.00 fps, 7000 kbps avg, 0. 675 bit/pixel
Аудио: 48.0 khz, PCM, 2 ch, 1536 kbps avg
Доп. информация: Bonus DVD к EP "Yesterday." Концерт, прошедший в Испании.

Состав: Chris Boltendahl - Vocals
Manni Schmidt - Guitars
H.P. Katzenburg - Keyboards
Jens Becker - Bass
Stefan Arnold - Drums

Треклист: 01. Intro
02. Scotland United
03. The Dark Of The Sun
04. The Reaper
05. The Round Table
06. Excalibur
07. Circle Of Witches
08. Symphony Of Death
09. Lionheart
10. Morgane LeFay
11. Knights Of The Cross
12. Rebellion
13. Heavy Metal Breakdown
Title: Gravedigger - Live At The Rock Machina Festival
Size: 3.77 Gb ( 3 954 792,00 KBytes ) - DVD-5
Enabled regions: 1, 2, 3, 4, 5, 6, 7, 8

VTS_01 :
Play Length: 00:00:09
Video: PAL 4:3 (720x576) VBR

VTS_02 :
Play Length: 00:00:06
Video: PAL 4:3 (720x576) VBR

VTS_03 :
Play Length: 01:01:33
Video: PAL 4:3 (720x576) VBR
Audio:
Not specified, LPCM, Delay = 0 mSec

* Menus Information *

VIDEO_TS Menu
Video:
PAL 4:3 (720x576) VBR
English Language Unit :
Title Menu

VTS_01 Menu
Video:
PAL 4:3 (720x576) VBR
Audio:
Not specified (LinearPCM, 2 ch)
English Language Unit :
Root Menu

VTS_02 Menu
Video:
PAL 4:3 (720x576) VBR
English Language Unit :
Root Menu

VTS_03 Menu
Video:
PAL 4:3 (720x576) VBR
English Language Unit :
Root Menu
Общее
Полное имя: D:\Video\Gravedigger - Live At The Rock Machina Festival\VIDEO_TS\VTS_03_1.VOB
Формат: MPEG-PS
Размер файла: 1024 Мбайт
Продолжительность: 16 м.
Общий поток: 8688 Кбит/сек

Видео
Идентификатор: 224 (0xE0)
Формат: MPEG Video
Версия формата: Version 2
Профиль формата: Main@Main
Параметр BVOP формата: Да
Параметр матрицы формата: По умолчанию
Параметры GOP формата: M=3, N=15
Продолжительность: 16 м.
Вид битрейта: Постоянный
Битрейт: 7000 Кбит/сек
Ширина: 720 пикс.
Высота: 576 пикс.
Соотношение сторон: 4:3
Частота кадров: 25,000 кадр/сек
Стандарт вещания: PAL
Цветовое пространство: YUV
Подвыборка цветности: 4:2:0
Битовая глубина: 8 бит
Тип развёртки: Чересстрочная
Порядок развёртки: Верхнее поле первое
Метод сжатия: С потерями
Бит/(Пиксели*Кадры): 0.675
Размер потока: 823 Мбайт (80%)

Аудио
Идентификатор: 160 (0xA0)
Формат: PCM
Параметр Endianness формата: Big
Параметр Sign формата: Signed
Режим смешивания: DVD-Video
Продолжительность: 16 м.
Вид битрейта: Постоянный
Битрейт: 1536 Кбит/сек
Каналы: 2 канала
Расположение каналов: Front: L R
Частота: 48,0 КГц
Битовая глубина: 16 бит
Задержка видео: -80 мс.
Размер потока: 181 Мбайт (18%)

Меню


[/field]





[b]Поделиться:




реклама партнёра


Вернуться к началу
 Профиль  
 
   Похожие торренты   Автор   Торрент   Размер 
В этой теме нет новых непрочитанных сообщений. Grave Digger - Home At Last (EP) [27.07.2012, Heavy Metal, MP3]

PriZraK

0 | 1

66.53 МБ

В этой теме нет новых непрочитанных сообщений. Grave Digger - Clash Of The Gods (Ltd.Ed) [2012, Heavy Metal, MP3]

PriZraK

1 | 2

192.77 МБ

В этой теме нет новых непрочитанных сообщений. Grave Digger - Return Of The Reaper (Limited Edition Mediabook) [2014, Heavy Metal, Power Metal, MP3]

PriZraK

0 | 1

249.48 МБ

В этой теме нет новых непрочитанных сообщений. Machina - Majestic Machination [2009, Heavy Metal, Power Metal, MP3]

PriZraK

0 | 1

101.55 МБ

В этой теме нет новых непрочитанных сообщений. Earthen Grave - Earthen Grave [2012, Traditional Doom, Heavy Metal, MP3]

PriZraK

0 | 1

143.54 МБ

В этой теме нет новых непрочитанных сообщений. Uriah Heep - Live at Sweden Rock Festival [2009, Hard Rock, MP3]

PriZraK

2 | 2

130.19 МБ

В этой теме нет новых непрочитанных сообщений. Rainbow - Long Live Rock 'n' Roll (Deluxe Remastered Edition) [2012, Heavy Metal, Hard Rock, MP3]

PriZraK

1 | 2

253.1 МБ


Начать новую тему Ответить на тему  [ 1 сообщение ] 




Для Мосгорсуда, Роскомнадзора и рекламодателей:: mosgorsud-torrent[собачка]yandex.ru