Торрент файл
скачать торрент магнет ссылка Добавлен: 08 янв 2012, 11:20
Размер: 2.81 ГБ
Сидеров: 3
Личеров: 2
Автор

СообщениеДобавлено: 08 янв 2012, 11:20 

Не в сети
Зам. Админа
Аватара пользователя
Дата регистрации:
02 дек 2010, 12:39
Спасибо: 12707 / 214
Сообщения: 27959
Destruction - Live Discharge - 20 Years Of Total Destruction

Формат: DVDRip, AVI, DivX, MP3
Песня: Live Discharge - 20 Years Of Total Destruction
Жанр: Thrash Metal
Продолжительность: 03:20:00
Год выпуска: 2004
Видео: MPEG 4 VIDEO, 640*480, (4:3), 25.0 fps, 1776 kbps,0,231 bit/pixel
Аудио: 44,1 khz, MP 3, 2 ch, 224 kbps avg
Доп. информация:На DVD вошёл материал всех периодов истории DESTRUCTION. В концертной части DVD представлен материал сразу трех выступлений - на фестивалях Wacken Open Air, With Full Force и Z7 Metaldays.

В качестве бонусов на DVD вошливидео-клипы "Desecrators" и "The Ravenous Beast", документальный фильм об австралийском турне, интервью об истории группы, несколько дополнительных концертных вещей, а также архивные записи 80-х годов

Live Discharge:

01 - Curse the Gods
02 - Nailed to the Cross
03 - (Wacken before the show special)
04 - Eternal Ban
05 - Mad Butcher
06 - Life without sense
07 - Machinery of lies
08 - Thrash till death
09 - (Destruction on tour special)
10 - Metal Discharge
11 - The butcher strickes back
12 - Antichrist
13 - Reject Emotions
14 - Release from agony
15 - Tears of blood
16 - Drumsolo
17 - Tormentor
18 - (Destruction worldwide special)
19 - Invincible Force
20 - Bestial Invasion (Fucked up Wacken version!)
21 - Bestial Invasion
22 - (Wacken after show special)
23 - Bullets from hell
24 - (Metal days after show special)
25 - Total Desaster

Bonus Stuff:

- Interview 20 Years of Destruction
- Desecrators (Video Clip)
- The Ravenous Beast (Video Clip)
- Australien Tour Special
- WFF 2003 Curse The Gods
- Z7'03 Mad Butcher
- WACKEN'99 Metal Warriors
- Live In Stuttgart 2000
- Bestial Invasion 1985
- Heavy Sound Festival 1988
Общее
Полное имя: D:\Video\Destruction - Live Discharge\Live Discharge.avi
Формат: AVI
Формат/Информация: Audio Video Interleave
Профиль формата: OpenDML
Размер файла: 1,20 Гбайт
Продолжительность: 1 ч. 25 м.
Общий поток: 2015 Кбит/сек
Программа кодирования: Lavf51.12.1

Видео
Идентификатор: 0
Формат: MPEG-4 Visual
Профиль формата: Simple@L1
Параметр BVOP формата: Нет
Параметр QPel формата: Нет
Параметр GMC формата: Без точки перехода
Параметр матрицы формата: Default (H.263)
Идентификатор кодека: DX50
Идентификатор кодека/Подсказка: DivX 5
Продолжительность: 1 ч. 25 м.
Битрейт: 1776 Кбит/сек
Ширина: 640 пикс.
Высота: 480 пикс.
Соотношение сторон: 4:3
Частота кадров: 25,000 кадр/сек
Цветовое пространство: YUV
Подвыборка цветности: 4:2:0
Битовая глубина: 8 бит
Тип развёртки: Прогрессивная
Метод сжатия: С потерями
Бит/(Пиксели*Кадры): 0.231
Размер потока: 1,06 Гбайт (88%)
Библиотека кодирования: Lavc51.40.4

Аудио
Идентификатор: 1
Формат: MPEG Audio
Версия формата: Version 1
Профиль формата: Layer 3
Режим: Joint stereo
Расширение режима: MS Stereo
Идентификатор кодека: 55
Идентификатор кодека/Подсказка: MP3
Продолжительность: 17 м.
Вид битрейта: Постоянный
Битрейт: 224 Кбит/сек
Каналы: 2 канала
Частота: 44,1 КГц
Метод сжатия: С потерями
Размер потока: 27,5 Мбайт (2%)
Выравнивание: Соединение по промежуткам
Продолжительность промежутка: 130мс. (3,24 видеокадра)
Библиотека кодирования: LAME3.97








[b]Поделиться:



Вернуться к началу
 Профиль  
 
   Похожие торренты   Автор   Торрент   Размер 
В этой теме нет новых непрочитанных сообщений. Angel Wicky - Total DAP destruction with Angel Wicky, Balls Deep Anal and DAP, TP, Gapes, Facial GIO1045 (2019) WEB-DL 720p

zorgi

27 | 11

1.69 ГБ

В этой теме нет новых непрочитанных сообщений. Anna Rey - Total Dap Destruction with Anna Rey Almost All Dap / Gapes / TP / Airplane Tunnel Vision / Facial GIO484 (2017) WEB-DL 720p

zorgi

30 | 2

1.6 ГБ

В этой теме нет новых непрочитанных сообщений. Angel Wicky - Total DAP destruction with Angel Wicky, Balls Deep Anal and DAP, TP, Gapes, Facial GIO1045 (2019) WEB-DLRip

zorgi

14 | 2

847.67 МБ

В этой теме нет новых непрочитанных сообщений. Dee Williams - Total Dap Destruction with Dee Williams Balls Deep Anal / DAP / TP / Gapes / Airplane / Swallow GIO631 (2018) WEB-DLRip

zorgi

12 | 0

886.13 МБ

В этой теме нет новых непрочитанных сообщений. Dee Williams - Total Dap Destruction with Dee Williams Balls Deep Anal / DAP / TP / Gapes / Airplane / Swallow GIO631 (2018) WEB-DL 720p

zorgi

2 | 1

1.74 ГБ

В этой теме нет новых непрочитанных сообщений. Baby Bamby - Daddy punishes little Baby Bamby! Physical destruction, dirty toilet, brush in pussy NRX115 (2021) SiteRip

zorgi

34 | 8

789.09 МБ

В этой теме нет новых непрочитанных сообщений. Kristi Deep - Devilishly beautiful Kristi and the excitation from anal destruction! Anal waterfall, slaps, rimming NRX116 (2021) SiteRip

zorgi

34 | 13

846.57 МБ


Начать новую тему Ответить на тему  [ 1 сообщение ] 




Для Мосгорсуда, Роскомнадзора и рекламодателей:: rstracker[собака]yandex.ru
cron