Торрент файл
скачать торрент магнет ссылка Добавлен: 08 янв 2012, 11:19
Размер: 1.08 ГБ
Сидеров: 0
Личеров: 4
Автор

СообщениеДобавлено: 08 янв 2012, 11:19 

Не в сети
Зам. Админа
Аватара пользователя
Дата регистрации:
02 дек 2010, 12:39
Спасибо: 12461 / 214
Сообщения: 27968
Kreator - Enemy Of God Revisited - Live In Wacken

Формат: DVDRip, AVI, XviD, MP3
Песня: Enemy Of God Revisited - Live In Wacken
Жанр: Thrash Metal
Продолжительность: 01:00:15
Год выпуска: 2006
Видео: MPEG 4 VIDEO, 640*480, (4:3), 25.0 fps, 2310 kbps,0,301 bit/pixel
Аудио: 44,1 khz, MP 3, 2 ch, 224 kbps avg
Доп. информация: Концертная часть DVD 9 Enemy Of God Revisited. Выступление группы состоялось на фестивале в Wacken - 2005 год.
    Треклист
1. Intro
2. Enemy of God
3. Impossible Brutallity
4. Pleasure to Kill
5. Phobia
6. Violent Revolution
7. Suicide Terrorist
8. Extreme Agression
9. People of the Lie
10. Voices of the Dead
11. Terrible Certainty
12. Betrayer
13. Flag of Hate
14. Tormentor
Общее
Полное имя: D:\Video\Enemy Of God Revisited.avi
Формат: AVI
Формат/Информация: Audio Video Interleave
Профиль формата: OpenDML
Размер файла: 1,08 Гбайт
Продолжительность: 1 ч. 0 м.
Общий поток: 2550 Кбит/сек
Программа кодирования: Lavf51.12.1

Видео
Идентификатор: 0
Формат: xvid
Идентификатор кодека: xvid
Продолжительность: 1 ч. 0 м.
Битрейт: 2310 Кбит/сек
Ширина: 640 пикс.
Высота: 480 пикс.
Соотношение сторон: 4:3
Частота кадров: 25,000 кадр/сек
Бит/(Пиксели*Кадры): 0.301
Размер потока: 1002 Мбайт (91%)

Аудио
Идентификатор: 1
Формат: MPEG Audio
Версия формата: Version 1
Профиль формата: Layer 3
Режим: Joint stereo
Идентификатор кодека: 55
Идентификатор кодека/Подсказка: MP3
Продолжительность: 1 ч. 0 м.
Вид битрейта: Постоянный
Битрейт: 224 Кбит/сек
Каналы: 2 канала
Частота: 44,1 КГц
Метод сжатия: С потерями
Размер потока: 97,2 Мбайт (9%)
Выравнивание: Соединение по промежуткам
Продолжительность промежутка: 26мс. (0,65 видеокадр)






[b]Поделиться:




реклама партнёра


Вернуться к началу
 Профиль  
 
   Похожие торренты   Автор   Торрент   Размер 
В этой теме нет новых непрочитанных сообщений. Kreator - Dying Alive (Live) [Deluxe Edition] [2013, Thrash Metal, MP3]

PriZraK

0 | 1

457.16 МБ

В этой теме нет новых непрочитанных сообщений. Kreator - Discography (Thrash Metal, Speed Metal. 1984-2013) MP3

Aleksandr.ru

52 | 29

8.93 ГБ

В этой теме нет новых непрочитанных сообщений. Kreator – Phantom Antichrist [Single] [20.04.2012, Thrash Metal, MP3]

PriZraK

0 | 1

6.66 МБ

В этой теме нет новых непрочитанных сообщений. Kreator - Civilization Collapse (Single) [25.10.2012, Thrash Metal, MP3]

PriZraK

0 | 2

17.28 МБ

В этой теме нет новых непрочитанных сообщений. Kreator - Phantom Antichrist (Japanese Edition) [2012, Thrash Metal, MP3]

PriZraK

0 | 1

115.11 МБ

В этой теме нет новых непрочитанных сообщений. Kreator - Phantom Antichrist ( Deluxe Edition ) [2012, Thrash Metal, MP3]

PriZraK

0 | 1

312.88 МБ

В этой теме нет новых непрочитанных сообщений. VA - Kreator & Sodom & Destruction & Tankard - The Big Teutonic 4 (split) [2012, Thrash Metal, MP3]

PriZraK

0 | 1

30.4 МБ


Начать новую тему Ответить на тему  [ 1 сообщение ] 




Для Мосгорсуда, Роскомнадзора и рекламодателей:: mosgorsud-torrent[собачка]yandex.ru