Торрент файл
скачать торрент магнет ссылка Добавлен: 08 янв 2012, 11:19
Размер: 1.08 ГБ
Сидеров: 0
Личеров: 4
Автор

СообщениеДобавлено: 08 янв 2012, 11:19 

Не в сети
Зам. Админа
Аватара пользователя
Дата регистрации:
02 дек 2010, 12:39
Спасибо: 12650 / 214
Сообщения: 28010
Kreator - Enemy Of God Revisited - Live In Wacken

Формат: DVDRip, AVI, XviD, MP3
Песня: Enemy Of God Revisited - Live In Wacken
Жанр: Thrash Metal
Продолжительность: 01:00:15
Год выпуска: 2006
Видео: MPEG 4 VIDEO, 640*480, (4:3), 25.0 fps, 2310 kbps,0,301 bit/pixel
Аудио: 44,1 khz, MP 3, 2 ch, 224 kbps avg
Доп. информация: Концертная часть DVD 9 Enemy Of God Revisited. Выступление группы состоялось на фестивале в Wacken - 2005 год.
    Треклист
1. Intro
2. Enemy of God
3. Impossible Brutallity
4. Pleasure to Kill
5. Phobia
6. Violent Revolution
7. Suicide Terrorist
8. Extreme Agression
9. People of the Lie
10. Voices of the Dead
11. Terrible Certainty
12. Betrayer
13. Flag of Hate
14. Tormentor
Общее
Полное имя: D:\Video\Enemy Of God Revisited.avi
Формат: AVI
Формат/Информация: Audio Video Interleave
Профиль формата: OpenDML
Размер файла: 1,08 Гбайт
Продолжительность: 1 ч. 0 м.
Общий поток: 2550 Кбит/сек
Программа кодирования: Lavf51.12.1

Видео
Идентификатор: 0
Формат: xvid
Идентификатор кодека: xvid
Продолжительность: 1 ч. 0 м.
Битрейт: 2310 Кбит/сек
Ширина: 640 пикс.
Высота: 480 пикс.
Соотношение сторон: 4:3
Частота кадров: 25,000 кадр/сек
Бит/(Пиксели*Кадры): 0.301
Размер потока: 1002 Мбайт (91%)

Аудио
Идентификатор: 1
Формат: MPEG Audio
Версия формата: Version 1
Профиль формата: Layer 3
Режим: Joint stereo
Идентификатор кодека: 55
Идентификатор кодека/Подсказка: MP3
Продолжительность: 1 ч. 0 м.
Вид битрейта: Постоянный
Битрейт: 224 Кбит/сек
Каналы: 2 канала
Частота: 44,1 КГц
Метод сжатия: С потерями
Размер потока: 97,2 Мбайт (9%)
Выравнивание: Соединение по промежуткам
Продолжительность промежутка: 26мс. (0,65 видеокадр)






[b]Поделиться:



Вернуться к началу
 Профиль  
 
   Похожие торренты   Автор   Торрент   Размер 
В этой теме нет новых непрочитанных сообщений. В тылу врага 2: Ось зла / Behind Enemy Lines 2: Axis Of Evil [Боевик, 2006] DVDRip-AVC, Dub

salma3

78 | 24

1.46 ГБ

В этой теме нет новых непрочитанных сообщений. В тылу врага 2: Ось зла / Behind Enemy Lines 2: Axis Of Evil [Боевик, 2006] BDRip, Dub

salma3

39 | 33

1.46 ГБ

В этой теме нет новых непрочитанных сообщений. В тылу врага 2: Ось зла / Behind Enemy Lines 2: Axis Of Evil [Боевик, 2006] BDRip 1080p, Dub

salma3

24 | 17

6.98 ГБ

В этой теме нет новых непрочитанных сообщений. Возвращение в Брайдсхед / Brideshead Revisited [Драма, мелодрама, экранизация, 2008] ВDRip-AVC, Dvo

salma3

0 | 0

3.55 ГБ

В этой теме нет новых непрочитанных сообщений. За линией огня / Behind Enemy Lines [Боевик, 1997] DVDRip, Dvo+Avo

salma3

38 | 0

1.46 ГБ

В этой теме нет новых непрочитанных сообщений. [WildOnCam.com / CherryPimps.com] Alexis Fawx (Excited To Fuck For You LIVE / 2017-05-04 / 15695) Excited To Fuck For You LIVE [Big Tits, Blonde, Facials, Feet, Hardcore, Lingerie, Live Show, MILF, Pile Driver, 1080p]

salma3

32 | 10

5.35 ГБ

В этой теме нет новых непрочитанных сообщений. C. C. Catch - Live at Copernicus Center [Pop, disco, live, 2015] WEB-DLRip-AVC

salma3

41 | 1

843.74 МБ


Начать новую тему Ответить на тему  [ 1 сообщение ] 




Для Мосгорсуда, Роскомнадзора и рекламодателей:: mosgorsud-torrent[собачка]yandex.ru
cron