Торрент файл
скачать торрент магнет ссылка Добавлен: 08 янв 2012, 11:18
Размер: 949.94 МБ
Сидеров: 2
Личеров: 3
Автор

СообщениеДобавлено: 08 янв 2012, 11:18 

Не в сети
Зам. Админа
Аватара пользователя
Дата регистрации:
02 дек 2010, 12:39
Спасибо: 12707 / 214
Сообщения: 27959
Helloween - Live In Cologne

Формат: DVDRip, AVI, XviD, MP3
Песня: Live In Cologne
Жанр: Heavy Metal
Продолжительность: 00:52:00
Год выпуска: 2006
Видео: MPEG 4 VIDEO, 640*480, (4:3), 25.0 fps, 2311 kbps,0,301 bit/pixel
Аудио: 44,1 khz, MP 3, 2 ch, 224 kbps avg
Доп. информация: Концерт, состоявшийся 14 мая 1992 года, в Кёльне, Германия.
    Треклист
    1.Intro
    2.Kids of the Century
    3.Back on the Streets
    4.Eagle Fly Free
    5.A Little Time
    6.Mankind
    7.Im Going Fine Crazy Man
    8.Dr. Stein
    9.Pink Bubbles Go Ape
    10.Your Turn
    11.A Tale That Wasnt Right
    12.Future World
    13.Outro
Общее
Полное имя: D:\Video\Live In Cologne.avi
Формат: AVI
Формат/Информация: Audio Video Interleave
Размер файла: 950 Мбайт
Продолжительность: 52 м.
Общий поток: 2547 Кбит/сек
Программа кодирования: Lavf51.12.1

Видео
Идентификатор: 0
Формат: xvid
Идентификатор кодека: xvid
Продолжительность: 52 м.
Битрейт: 2311 Кбит/сек
Ширина: 640 пикс.
Высота: 480 пикс.
Соотношение сторон: 4:3
Частота кадров: 25,000 кадр/сек
Бит/(Пиксели*Кадры): 0.301
Размер потока: 862 Мбайт (91%)

Аудио
Идентификатор: 1
Формат: MPEG Audio
Версия формата: Version 1
Профиль формата: Layer 3
Режим: Joint stereo
Идентификатор кодека: 55
Идентификатор кодека/Подсказка: MP3
Продолжительность: 52 м.
Вид битрейта: Постоянный
Битрейт: 224 Кбит/сек
Каналы: 2 канала
Частота: 44,1 КГц
Метод сжатия: С потерями
Размер потока: 83,5 Мбайт (9%)
Выравнивание: Соединение по промежуткам
Продолжительность промежутка: 26мс. (0,65 видеокадр)
Библиотека кодирования: LAME3.97






[b]Поделиться:



Вернуться к началу
 Профиль  
 
   Похожие торренты   Автор   Торрент   Размер 
В этой теме нет новых непрочитанных сообщений. Gueppardo - I Am The Law [2021 г., Heavy-Metal, Hard-Rock, MP3]

zorgi

0 | 0

77.49 МБ

В этой теме нет новых непрочитанных сообщений. W.A.S.P. - Dominator (FLAC) [Heavy Metal, 2007] FLAC (image+.cue), lossless

Redscarf

10 | 0

326.62 МБ

В этой теме нет новых непрочитанных сообщений. Slayer - Christ Illusion [Thrash Metal, 2006] FLAC (image+.cue), lossless

Redscarf

0 | 0

300.6 МБ

В этой теме нет новых непрочитанных сообщений. Powerman 5000 - Destroy What You Enjoy [Alternative Metal, 2006] FLAC (image+.cue), lossless

Redscarf

13 | 0

292.22 МБ

В этой теме нет новых непрочитанных сообщений. Девственницы на экране / Virgins Of The Screen (2006) DVDRip

zorgi

19 | 5

1.36 ГБ

В этой теме нет новых непрочитанных сообщений. Bree Olson - Whale Tail 3 (2006) DVDRip

zorgi

13 | 4

616.6 МБ

В этой теме нет новых непрочитанных сообщений. Движимые похотью / Von Lust Getrieben (2006) DVDRip

zorgi

9 | 1

1.37 ГБ


Начать новую тему Ответить на тему  [ 1 сообщение ] 




Для Мосгорсуда, Роскомнадзора и рекламодателей:: rstracker[собака]yandex.ru
cron