Торрент файл
скачать торрент магнет ссылка Добавлен: 08 янв 2012, 11:18
Размер: 949.94 МБ
Сидеров: 2
Личеров: 3
Автор

СообщениеДобавлено: 08 янв 2012, 11:18 

Не в сети
Зам. Админа
Аватара пользователя
Дата регистрации:
02 дек 2010, 12:39
Спасибо: 12635 / 214
Сообщения: 28010
Helloween - Live In Cologne

Формат: DVDRip, AVI, XviD, MP3
Песня: Live In Cologne
Жанр: Heavy Metal
Продолжительность: 00:52:00
Год выпуска: 2006
Видео: MPEG 4 VIDEO, 640*480, (4:3), 25.0 fps, 2311 kbps,0,301 bit/pixel
Аудио: 44,1 khz, MP 3, 2 ch, 224 kbps avg
Доп. информация: Концерт, состоявшийся 14 мая 1992 года, в Кёльне, Германия.
    Треклист
    1.Intro
    2.Kids of the Century
    3.Back on the Streets
    4.Eagle Fly Free
    5.A Little Time
    6.Mankind
    7.Im Going Fine Crazy Man
    8.Dr. Stein
    9.Pink Bubbles Go Ape
    10.Your Turn
    11.A Tale That Wasnt Right
    12.Future World
    13.Outro
Общее
Полное имя: D:\Video\Live In Cologne.avi
Формат: AVI
Формат/Информация: Audio Video Interleave
Размер файла: 950 Мбайт
Продолжительность: 52 м.
Общий поток: 2547 Кбит/сек
Программа кодирования: Lavf51.12.1

Видео
Идентификатор: 0
Формат: xvid
Идентификатор кодека: xvid
Продолжительность: 52 м.
Битрейт: 2311 Кбит/сек
Ширина: 640 пикс.
Высота: 480 пикс.
Соотношение сторон: 4:3
Частота кадров: 25,000 кадр/сек
Бит/(Пиксели*Кадры): 0.301
Размер потока: 862 Мбайт (91%)

Аудио
Идентификатор: 1
Формат: MPEG Audio
Версия формата: Version 1
Профиль формата: Layer 3
Режим: Joint stereo
Идентификатор кодека: 55
Идентификатор кодека/Подсказка: MP3
Продолжительность: 52 м.
Вид битрейта: Постоянный
Битрейт: 224 Кбит/сек
Каналы: 2 канала
Частота: 44,1 КГц
Метод сжатия: С потерями
Размер потока: 83,5 Мбайт (9%)
Выравнивание: Соединение по промежуткам
Продолжительность промежутка: 26мс. (0,65 видеокадр)
Библиотека кодирования: LAME3.97






[b]Поделиться:




реклама партнёра


Вернуться к началу
 Профиль  
 
   Похожие торренты   Автор   Торрент   Размер 
В этой теме нет новых непрочитанных сообщений. W.A.S.P. - Golgotha [2015, Heavy Metal, Glam Metal, Hard Rock, MP3]

salma3

0 | 0

108.17 МБ

В этой теме нет новых непрочитанных сообщений. [WildOnCam.com / CherryPimps.com] Alexis Fawx (Excited To Fuck For You LIVE / 2017-05-04 / 15695) Excited To Fuck For You LIVE [Big Tits, Blonde, Facials, Feet, Hardcore, Lingerie, Live Show, MILF, Pile Driver, 1080p]

salma3

32 | 10

5.35 ГБ

В этой теме нет новых непрочитанных сообщений. C. C. Catch - Live at Copernicus Center [Pop, disco, live, 2015] WEB-DLRip-AVC

salma3

41 | 1

843.74 МБ

В этой теме нет новых непрочитанных сообщений. Katana - The Greatest Victory [2015, Heavy metal, MP3]

salma3

0 | 0

106.31 МБ

В этой теме нет новых непрочитанных сообщений. Чёрный Обелиск - Революция (Heavy Metal. 2015) MP3

Aleksandr.ru

95 | 3

79.59 МБ

В этой теме нет новых непрочитанных сообщений. Чёрный Кофе - Осенний Порыв (Heavy Metal, 2015) MP3

Aleksandr.ru

684 | 44

111.89 МБ

В этой теме нет новых непрочитанных сообщений. Аэдра - Правда Рокового Дня [2013, Heavy, Melodic, Modern Metal, MP3]

salma3

1 | 11

85.4 МБ


Начать новую тему Ответить на тему  [ 1 сообщение ] 




Для Мосгорсуда, Роскомнадзора и рекламодателей:: mosgorsud-torrent[собачка]yandex.ru