Торрент файл
скачать торрент магнет ссылка Добавлен: 08 янв 2012, 11:18
Размер: 1.37 ГБ
Сидеров: 6
Личеров: 4
Автор

СообщениеДобавлено: 08 янв 2012, 11:18 

Не в сети
Зам. Админа
Аватара пользователя
Дата регистрации:
02 дек 2010, 12:39
Спасибо: 12623 / 214
Сообщения: 28012
Iron Maiden - Raising Hell

Формат: DVDRip, AVI, XviD, MP3
Песня: Raising Hell
Жанр: Heavy Metal
Продолжительность: 01:53:00
Год выпуска: 2003
Видео: MPEG 4 VIDEO, 640*480, (4:3), 25.0 fps, 1500 kbps,0,195 bit/pixel
Аудио: 44,1 khz, MP 3, 2 ch, 224 kbps avg
Доп. информация: Концерт, состоявшийся 28 августа 1993 года, в Лондоне, Великобритания. Последнее выступлениес Брюсом Диккинсоном перед его уходом из группы.
    Треклист
    1. Be Quick Or Be Dead
    2. The Trooper
    3. The Evil That Men Do
    4. The Clairvoyant
    5. Hallowed Be Thy Name
    6. Wrathchild
    7. Transylvania
    8. From Here To Eternity
    9. Fear Of The Dark
    10. The Number Of The Beast
    11. Bring Your Daughter...To The Slaughter
    12. Two Minutes To Midnight
    13. Afraid To Shoot Strangers
    14. Heaven Can Wait
    15. Sanctuary
    16. Run To The Hills
    17. Iron Maiden
Общее
Полное имя: D:\Video\Iron Maiden - Raising Hell.avi
Формат: AVI
Формат/Информация: Audio Video Interleave
Профиль формата: OpenDML
Размер файла: 1,37 Гбайт
Продолжительность: 1 ч. 53 м.
Общий поток: 1738 Кбит/сек
Программа кодирования: Lavf51.12.1

Видео
Идентификатор: 0
Формат: xvid
Идентификатор кодека: xvid
Продолжительность: 1 ч. 53 м.
Битрейт: 1500 Кбит/сек
Ширина: 640 пикс.
Высота: 480 пикс.
Соотношение сторон: 4:3
Частота кадров: 25,000 кадр/сек
Бит/(Пиксели*Кадры): 0.195
Размер потока: 1,19 Гбайт (86%)

Аудио
Идентификатор: 1
Формат: MPEG Audio
Версия формата: Version 1
Профиль формата: Layer 3
Режим: Joint stereo
Расширение режима: MS Stereo
Идентификатор кодека: 55
Идентификатор кодека/Подсказка: MP3
Продолжительность: 33 м.
Вид битрейта: Постоянный
Битрейт: 224 Кбит/сек
Каналы: 2 канала
Частота: 44,1 КГц
Метод сжатия: С потерями
Размер потока: 53,4 Мбайт (4%)
Выравнивание: Соединение по промежуткам
Продолжительность промежутка: 89мс. (2,22 видеокадра)







[b]Поделиться:




реклама партнёра


Вернуться к началу
 Профиль  
 
   Похожие торренты   Автор   Торрент   Размер 
В этой теме нет новых непрочитанных сообщений. VA - Heavy Metal: Louder Than Life [2015, Hard Rock, Melodic Heavy Metal, Heavy Metal, MP3]

Nickolas3435

0 | 272

2.43 ГБ

В этой теме нет новых непрочитанных сообщений. Шоссе в Ад / Поездка / Detour / Hell's highway [Ужасы, боевик, триллер, 2003] DVDRip, Mvo

salma3

25 | 4

1.37 ГБ

В этой теме нет новых непрочитанных сообщений. Aziani's Iron Girls 3 / Железные Девушки Азиани 3 (Rachel Aziani, Aziani Iron) [2017 г., All Sex, Fetish, Gonzo, Masturbation, Muscled Babes, Sex Toy Play, DVDRip]

salma3

5 | 2

1.97 ГБ

В этой теме нет новых непрочитанных сообщений. Aziani's Iron Girls 2 / Железные Девушки Азиани 2 (Rachel Aziani, Aziani Iron) [2017 г., All Sex, Fetish, Gonzo, Masturbation, Muscled Babes, Sex Toy Play, DVDRip]

salma3

7 | 2

1.95 ГБ

В этой теме нет новых непрочитанных сообщений. ВВС: Через Ад во имя Гитлера / ВВС: Through Hell for Hitler (ВВС) [2003, документальный, SATRip] VO

salma3

0 | 0

574.76 МБ

В этой теме нет новых непрочитанных сообщений. Accept - Heavy Ballads (Heavy Metal. 2015) MP3

Aleksandr.ru

403 | 34

363.25 МБ

В этой теме нет новых непрочитанных сообщений. Воскрешение Каина / Raising Cain [Триллер, 1992] BDRip 1080p, Avo+Dvo+Sub

salma3

35 | 22

9.6 ГБ


Начать новую тему Ответить на тему  [ 1 сообщение ] 




Для Мосгорсуда, Роскомнадзора и рекламодателей:: mosgorsud-torrent[собачка]yandex.ru