Торрент файл
скачать торрент магнет ссылка Добавлен: 08 янв 2012, 11:17
Размер: 3.25 ГБ
Сидеров: 3
Личеров: 6
Автор

СообщениеДобавлено: 08 янв 2012, 11:17 

Не в сети
Зам. Админа
Аватара пользователя
Дата регистрации:
02 дек 2010, 12:39
Спасибо: 12460 / 214
Сообщения: 27968
VA - Лучшее от Ello Vol.8

Формат: DVD5, DVD Video, MPEG2, AC3
Песня: Лучшее от Ello Vol.8
Жанр: Pop, R'n'B
Продолжительность: 02:04:11
Год выпуска: 2011

Видео: 720x576 (PAL 4:3), 25 fps, MPEG-2, ~3684 Mbps avg, 0.355 bit/pixel
Аудио: 48 kHz, AC-3, 2 ch, 192.00 kbps avg

Доп. информация: Материал взят с канала Ello - который представляет в свою очередь новинки как российской так и зарубежной попсы. Отличный профессиональный музыкальный канал и даже стоп кадры на всех видео выставлены очень правильно. Здесь можно увидеть как звезд так и совершенно молодых исполнителей. Предлагаю Вашему вниманию ВОСЬМУЮ подбороку с этого канала.

01 Тимур Родригез - Out in space
02 Инфинити - Ну и пусть
03 Шима – Ветрами
04 Илья Гуров - Кошки коты
05 Точка G - Цветная любовь
06 Потап & Настя - Мы отменяем К.С.
07 Елка — Мальчик-Красавчик
08 Чи-Ли - Любовь - это яд
09 Сергей Лазарев - Биение Сердца
10 Тутси - Горький шоколад
11 A'STUDIO – Ангел
12 Чи-Ли - Лето
13 Тамерлан и Алена Омаргалиева - Все будет хорошо
14 Денис Майданов - Оранжевое солнце
15 Девушки Эйнштейна – Сука
16 Лолита – Часы
17 Серебро - Dirty Kiss (Live)
18 Слава - В небо (к-ф Параграф 78.)
19 Вера Брежнева — Я не играю
20 Елена Есенина - Мир без тебя
21 Иракли и Бьянка ft Party People - Белый пляж
22 Dilani - Bad Boy
23 Сергей Галоян feat Nire' Alldai – Everything
24 Катя Чехова – Птица
25 Кристина Орбакайте — Нежная
26 Инь-Ян – Карма
27 Время и Стекло- Так выпала Карта
28 Дима Билан – Мечтатели
29 Ани Лорак – Спроси
30 Непара — Беги, беги
31 Ради славы - Слишком мало слов
32 Нэлли Мотяева – Научи


Общее
Формат: MPEG-PS
Общий поток: 3955 Кбит/сек

Видео
Идентификатор: 224 (0xE0)
Формат: MPEG Video
Версия формата: Version 2
Профиль формата: Main@Main
Параметр BVOP формата: Да
Параметр матрицы формата: По умолчанию
Вид битрейта: Переменный
Битрейт: 3684 Кбит/сек
Номинальный битрейт: 9008 Кбит/сек
Ширина: 720 пикс.
Высота: 576 пикс.
Соотношение сторон: 4:3
Частота кадров: 25,000 кадр/сек
Стандарт вещания: PAL
Цветовое пространство: YUV
Подвыборка цветности: 4:2:0
Битовая глубина: 8 бит
Тип развёртки: Прогрессивная
Метод сжатия: С потерями
Бит/(Пиксели*Кадры): 0.355
Размер потока: 954 Мбайт (93%)

Аудио
Идентификатор: 128 (0x80)
Формат: AC-3
Формат/Информация: Audio Coding 3
Расширение режима: CM (complete main)
Вид битрейта: Постоянный
Битрейт: 192 Кбит/сек
Канал(ы): 2 канала(ов)
Расположение каналов: Front: L R
Частота: 48,0 КГц
Битовая глубина: 16 бит
Метод сжатия: С потерями
Размер потока: 49,7 Мбайт (5%)













Поделиться:




реклама партнёра


Вернуться к началу
 Профиль  
 
   Похожие торренты   Автор   Торрент   Размер 
В этой теме нет новых непрочитанных сообщений. Освенцим / Auschwitz [драма, 2011] DVD5, Mvo+Sub [лицензия]

Dracon

57 | 7

3.77 ГБ

В этой теме нет новых непрочитанных сообщений. Уловка .44 / Catch .44 [триллер, драма, криминал, 2011] DVD5, Mvo+Sub

salma3

10 | 8

4.37 ГБ

В этой теме нет новых непрочитанных сообщений. Многоэтажка / Небоскреб смерти / Tower Block [триллер, 2011] DVD5, Mvo+Sub

salma3

9 | 7

4.32 ГБ

В этой теме нет новых непрочитанных сообщений. Военные игры / War Games: At the End of the Day [Триллер, боевик, ужасы, 2011] DVD5, Mvo

salma3

15 | 11

4.35 ГБ

В этой теме нет новых непрочитанных сообщений. Маленький убийца / Little Murder [триллер, драма, 2011] DVD5, Mvo [лицензия]

salma3

0 | 2

3.93 ГБ

В этой теме нет новых непрочитанных сообщений. 12 Рождественских желаний / 12 Wishes of Christmas [фэнтези, комедия, 2011] DVD5, Mvo [лицензия]

salma3

48 | 7

3.92 ГБ

В этой теме нет новых непрочитанных сообщений. Последний час Земли / Earth's Final Hours [Фантастика, 2011] DVD5, Mvo [Лицензия]

salma3

41 | 14

4.01 ГБ


Начать новую тему Ответить на тему  [ 1 сообщение ] 




Для Мосгорсуда, Роскомнадзора и рекламодателей:: mosgorsud-torrent[собачка]yandex.ru