Торрент файл
скачать торрент магнет ссылка Добавлен: 08 янв 2012, 11:17
Размер: 3.25 ГБ
Сидеров: 3
Личеров: 6
Автор

СообщениеДобавлено: 08 янв 2012, 11:17 

Не в сети
Зам. Админа
Аватара пользователя
Дата регистрации:
02 дек 2010, 12:39
Спасибо: 12707 / 214
Сообщения: 27959
VA - Лучшее от Ello Vol.8

Формат: DVD5, DVD Video, MPEG2, AC3
Песня: Лучшее от Ello Vol.8
Жанр: Pop, R'n'B
Продолжительность: 02:04:11
Год выпуска: 2011

Видео: 720x576 (PAL 4:3), 25 fps, MPEG-2, ~3684 Mbps avg, 0.355 bit/pixel
Аудио: 48 kHz, AC-3, 2 ch, 192.00 kbps avg

Доп. информация: Материал взят с канала Ello - который представляет в свою очередь новинки как российской так и зарубежной попсы. Отличный профессиональный музыкальный канал и даже стоп кадры на всех видео выставлены очень правильно. Здесь можно увидеть как звезд так и совершенно молодых исполнителей. Предлагаю Вашему вниманию ВОСЬМУЮ подбороку с этого канала.

01 Тимур Родригез - Out in space
02 Инфинити - Ну и пусть
03 Шима – Ветрами
04 Илья Гуров - Кошки коты
05 Точка G - Цветная любовь
06 Потап & Настя - Мы отменяем К.С.
07 Елка — Мальчик-Красавчик
08 Чи-Ли - Любовь - это яд
09 Сергей Лазарев - Биение Сердца
10 Тутси - Горький шоколад
11 A'STUDIO – Ангел
12 Чи-Ли - Лето
13 Тамерлан и Алена Омаргалиева - Все будет хорошо
14 Денис Майданов - Оранжевое солнце
15 Девушки Эйнштейна – Сука
16 Лолита – Часы
17 Серебро - Dirty Kiss (Live)
18 Слава - В небо (к-ф Параграф 78.)
19 Вера Брежнева — Я не играю
20 Елена Есенина - Мир без тебя
21 Иракли и Бьянка ft Party People - Белый пляж
22 Dilani - Bad Boy
23 Сергей Галоян feat Nire' Alldai – Everything
24 Катя Чехова – Птица
25 Кристина Орбакайте — Нежная
26 Инь-Ян – Карма
27 Время и Стекло- Так выпала Карта
28 Дима Билан – Мечтатели
29 Ани Лорак – Спроси
30 Непара — Беги, беги
31 Ради славы - Слишком мало слов
32 Нэлли Мотяева – Научи


Общее
Формат: MPEG-PS
Общий поток: 3955 Кбит/сек

Видео
Идентификатор: 224 (0xE0)
Формат: MPEG Video
Версия формата: Version 2
Профиль формата: Main@Main
Параметр BVOP формата: Да
Параметр матрицы формата: По умолчанию
Вид битрейта: Переменный
Битрейт: 3684 Кбит/сек
Номинальный битрейт: 9008 Кбит/сек
Ширина: 720 пикс.
Высота: 576 пикс.
Соотношение сторон: 4:3
Частота кадров: 25,000 кадр/сек
Стандарт вещания: PAL
Цветовое пространство: YUV
Подвыборка цветности: 4:2:0
Битовая глубина: 8 бит
Тип развёртки: Прогрессивная
Метод сжатия: С потерями
Бит/(Пиксели*Кадры): 0.355
Размер потока: 954 Мбайт (93%)

Аудио
Идентификатор: 128 (0x80)
Формат: AC-3
Формат/Информация: Audio Coding 3
Расширение режима: CM (complete main)
Вид битрейта: Постоянный
Битрейт: 192 Кбит/сек
Канал(ы): 2 канала(ов)
Расположение каналов: Front: L R
Частота: 48,0 КГц
Битовая глубина: 16 бит
Метод сжатия: С потерями
Размер потока: 49,7 Мбайт (5%)













Поделиться:



Вернуться к началу
 Профиль  
 
   Похожие торренты   Автор   Торрент   Размер 
В этой теме нет новых непрочитанных сообщений. [EvilAngel.com]Adriana Chechik's Extreme Gangbang [2020 г., Gonzo Hardcore All Sex Anal DP DAP DVP 480p]

salma3

0 | 0

583.24 МБ

В этой теме нет новых непрочитанных сообщений. [Brazzers.com / MommyGotBoobs.com] Katie Monroe (Mom's Helping Hands) [03.12.2019, All Sex, Big Tits, Blonde, Caucasian, Jeans, Piercing, Small Ass, Tattoo, 720p]

salma3

0 | 0

584.81 МБ

В этой теме нет новых непрочитанных сообщений. [EvilAngel.com]Adreena Winters ( MILF Adreena's Interracial Anal Gaping) [2019 г., Gonzo Hardcore Anal IR]

salma3

0 | 0

590.87 МБ

В этой теме нет новых непрочитанных сообщений. [MonstersOfCock.com / BangBros.com] Whitney Wright (Whitney's Double Dick Anal Fuck / mc17666) [2020-07-19, Anal, All Sex, Blowjob, DP, Facial, Interracial, Threesome, MMF, 480p]

salma3

39 | 13

314.03 МБ

В этой теме нет новых непрочитанных сообщений. Jessica Darlin (147) (Analysa Reese, Anna Lysa Rush, Jessica Darlin', Jessica Darling) MegaPack [1997-2008, Anal, Facial, Creampie, IR, DP, Swallow, A2M, MILF]

salma3

5 | 8

29.11 ГБ

В этой теме нет новых непрочитанных сообщений. [EvilAngel.com]Emma Hix( Emma Hix's Gaping Anal Fix) [2020 г., Gonzo Hardcore All Sex Anal ]

salma3

0 | 0

589.37 МБ

В этой теме нет новых непрочитанных сообщений. [EvilAngel.com]Vanessa Vega( Vanessa Vega: Anal 'Ho In Pantyhose) [2020 г., Gonzo Hardcore All Sex Anal ]

salma3

0 | 0

403.99 МБ


Начать новую тему Ответить на тему  [ 1 сообщение ] 




Для Мосгорсуда, Роскомнадзора и рекламодателей:: rstracker[собака]yandex.ru
cron