Торрент файл
скачать торрент магнет ссылка Добавлен: 08 янв 2012, 11:17
Размер: 2.78 ГБ
Сидеров: 6
Личеров: 10
Автор

СообщениеДобавлено: 08 янв 2012, 11:17 

Не в сети
Зам. Админа
Аватара пользователя
Дата регистрации:
02 дек 2010, 12:39
Спасибо: 12707 / 214
Сообщения: 27959
Группа Восток - Все небо


Формат: DVD5, DVD Video, MPEG2, AC3
Песня: Все небо
Жанр: Pop
Продолжительность: 00:50:02
Год выпуска: 1996-2005

Видео: 720x576 (PAL 4:3), 25 fps, MPEG-2, ~7141 Mbps avg, 0.689 bit/pixel
Аудио: 48 kHz, AC-3, 2 ch, 192.00 kbps avg

Доп. информация: «Восток» — популярный российский музыкальный коллектив 90-х. Группа стала известна благодаря таким хитам, как «Миражи», «До Встречи», «Танец Желтых Листьев», «Снежная Королева». Является одним из ярких представителей эпохи «Евроденса» — эпохи танцевальной музыки 90-х.
История группы «Восток» странная и таинственная — после стремительного взлёта в середине 90-х, она точно так же стремительно пропала отовсюду, а информация о группе была крайне скудной и иногда даже скандальной.

P.S. Диск неофициальный, сборка полностью моя, качество VHS-Rip.
01 Intro - Всё небо
02 Миражи
03 До встречи с тобой
04 Все небо
05 Лодочка
06 Позвони
07 Только дождь
08 Ибица
09 Танец жёлтых листьев
10 Жди меня
11 Снежная королева
12 До встречи с тобой (Легенды Ретро FM)
13 Танец жёлтых листьев (Live)
14 Огонёк в ночи
15 Baby u my world

Общее
Формат: MPEG-PS
Общий поток: 7482 Кбит/сек

Видео
Идентификатор: 224 (0xE0)
Формат: MPEG Video
Версия формата: Version 2
Профиль формата: Main@Main
Параметр BVOP формата: Да
Параметр матрицы формата: По умолчанию
Параметры GOP формата: M=3, N=13
Вид битрейта: Переменный
Битрейт: 7141 Кбит/сек
Номинальный битрейт: 9008 Кбит/сек
Ширина: 720 пикс.
Высота: 576 пикс.
Соотношение сторон: 4:3
Частота кадров: 25,000 кадр/сек
Стандарт вещания: PAL
Цветовое пространство: YUV
Подвыборка цветности: 4:2:0
Битовая глубина: 8 бит
Тип развёртки: Прогрессивная
Метод сжатия: С потерями
Бит/(Пиксели*Кадры): 0.689
Размер потока: 977 Мбайт (95%)

Аудио
Идентификатор: 128 (0x80)
Формат: AC-3
Формат/Информация: Audio Coding 3
Расширение режима: CM (complete main)
Вид битрейта: Постоянный
Битрейт: 192 Кбит/сек
Канал(ы): 2 канала(ов)
Расположение каналов: Front: L R
Частота: 48,0 КГц
Битовая глубина: 16 бит
Метод сжатия: С потерями
Размер потока: 26,3 Мбайт (3%)











Поделиться:



Вернуться к началу
 Профиль  
 
   Похожие торренты   Автор   Торрент   Размер 
В этой теме нет новых непрочитанных сообщений. Wicked - Веское доказательство / Hard Evidence (1996) DVD5

zorgi

1 | 1

4.26 ГБ

В этой теме нет новых непрочитанных сообщений. Футбол. Лига Чемпионов 2019-20. Группа C. 6-й тур. Шахтёр Д (Украина) - Аталанта (Италия) [11.12] (2019) HDTV 1080i

salma3

0 | 0

9.14 ГБ

В этой теме нет новых непрочитанных сообщений. Футбол. Лига Чемпионов 2019-20. Группа D. 6-й тур. Байер (Германия) - Ювентус (Италия) [11.12] (2019) HDTV 1080i

salma3

0 | 0

5.39 ГБ

В этой теме нет новых непрочитанных сообщений. Футбол. Лига Чемпионов 2019-20. Группа B. 6-й тур. Бавария (Германия) - Тоттенхэм Хотспур (Англия) [11.12] (2019) HDTV 1080i

salma3

0 | 0

5.85 ГБ

В этой теме нет новых непрочитанных сообщений. Футбол. Лига Чемпионов 2019-20. Группа C. 6-й тур. Динамо З (Хорватия) - Манчестер Сити (Англия) [11.12] (2019) HDTV 1080i

salma3

0 | 0

6.66 ГБ

В этой теме нет новых непрочитанных сообщений. Воздушная эротика / Airotica (1996) DVDRip

zorgi

5 | 5

1.45 ГБ

В этой теме нет новых непрочитанных сообщений. Воздушная эротика / Airotica (1996) DVDRip

zorgi

0 | 0

1.37 ГБ


Начать новую тему Ответить на тему  [ 1 сообщение ] 




Для Мосгорсуда, Роскомнадзора и рекламодателей:: rstracker[собака]yandex.ru
cron