Торрент файл
скачать торрент магнет ссылка Добавлен: 08 янв 2012, 11:17
Размер: 2.78 ГБ
Сидеров: 6
Личеров: 6
Автор

СообщениеДобавлено: 08 янв 2012, 11:17 

Не в сети
Зам. Админа
Аватара пользователя
Дата регистрации:
02 дек 2010, 12:39
Спасибо: 12461 / 214
Сообщения: 27968
Группа Восток - Все небо


Формат: DVD5, DVD Video, MPEG2, AC3
Песня: Все небо
Жанр: Pop
Продолжительность: 00:50:02
Год выпуска: 1996-2005

Видео: 720x576 (PAL 4:3), 25 fps, MPEG-2, ~7141 Mbps avg, 0.689 bit/pixel
Аудио: 48 kHz, AC-3, 2 ch, 192.00 kbps avg

Доп. информация: «Восток» — популярный российский музыкальный коллектив 90-х. Группа стала известна благодаря таким хитам, как «Миражи», «До Встречи», «Танец Желтых Листьев», «Снежная Королева». Является одним из ярких представителей эпохи «Евроденса» — эпохи танцевальной музыки 90-х.
История группы «Восток» странная и таинственная — после стремительного взлёта в середине 90-х, она точно так же стремительно пропала отовсюду, а информация о группе была крайне скудной и иногда даже скандальной.

P.S. Диск неофициальный, сборка полностью моя, качество VHS-Rip.
01 Intro - Всё небо
02 Миражи
03 До встречи с тобой
04 Все небо
05 Лодочка
06 Позвони
07 Только дождь
08 Ибица
09 Танец жёлтых листьев
10 Жди меня
11 Снежная королева
12 До встречи с тобой (Легенды Ретро FM)
13 Танец жёлтых листьев (Live)
14 Огонёк в ночи
15 Baby u my world

Общее
Формат: MPEG-PS
Общий поток: 7482 Кбит/сек

Видео
Идентификатор: 224 (0xE0)
Формат: MPEG Video
Версия формата: Version 2
Профиль формата: Main@Main
Параметр BVOP формата: Да
Параметр матрицы формата: По умолчанию
Параметры GOP формата: M=3, N=13
Вид битрейта: Переменный
Битрейт: 7141 Кбит/сек
Номинальный битрейт: 9008 Кбит/сек
Ширина: 720 пикс.
Высота: 576 пикс.
Соотношение сторон: 4:3
Частота кадров: 25,000 кадр/сек
Стандарт вещания: PAL
Цветовое пространство: YUV
Подвыборка цветности: 4:2:0
Битовая глубина: 8 бит
Тип развёртки: Прогрессивная
Метод сжатия: С потерями
Бит/(Пиксели*Кадры): 0.689
Размер потока: 977 Мбайт (95%)

Аудио
Идентификатор: 128 (0x80)
Формат: AC-3
Формат/Информация: Audio Coding 3
Расширение режима: CM (complete main)
Вид битрейта: Постоянный
Битрейт: 192 Кбит/сек
Канал(ы): 2 канала(ов)
Расположение каналов: Front: L R
Частота: 48,0 КГц
Битовая глубина: 16 бит
Метод сжатия: С потерями
Размер потока: 26,3 Мбайт (3%)











Поделиться:




реклама партнёра


Вернуться к началу
 Профиль  
 
   Похожие торренты   Автор   Торрент   Размер 
В этой теме нет новых непрочитанных сообщений. Восток есть восток / East Is East [драма, комедия, 1999] BDRip 720p, Mvo+Sub [лицензия]

salma3

51 | 3

4.37 ГБ

В этой теме нет новых непрочитанных сообщений. Жидкое небо / Liquid Sky [фантастика, комедия, 1982] DVD5, Avo

salma3

0 | 2

4.36 ГБ

В этой теме нет новых непрочитанных сообщений. Саботаж / Sabotage [боевик, триллер, драма, 1996] DVD5, Mvo

salma3

8 | 5

3.83 ГБ

В этой теме нет новых непрочитанных сообщений. Жертва ягуара / Prey of The Jaguar [Боевик, 1996] DVD5, Mvo+Avo

salma3

2 | 5

4.37 ГБ

В этой теме нет новых непрочитанных сообщений. Подарок на Рождество / Jingle All The Way [Детский, комедия, семейный, 1996] DVD5, Mvo [Лицензия]

salma3

21 | 7

4.24 ГБ

В этой теме нет новых непрочитанных сообщений. Смертельный лабиринт / House of 9 [триллер, 2005] DVD5, Mvo

salma3

11 | 3

4.25 ГБ

В этой теме нет новых непрочитанных сообщений. Большая Медведица (биография, документальный, 2005) DVD5

marya111

0 | 0

2.95 ГБ


Начать новую тему Ответить на тему  [ 1 сообщение ] 




Для Мосгорсуда, Роскомнадзора и рекламодателей:: mosgorsud-torrent[собачка]yandex.ru