Торрент файл
скачать торрент магнет ссылка Добавлен: 08 янв 2012, 11:15
Размер: 1.62 ГБ
Сидеров: 0
Личеров: 5
Автор

СообщениеДобавлено: 08 янв 2012, 11:15 

Не в сети
Зам. Админа
Аватара пользователя
Дата регистрации:
02 дек 2010, 12:39
Спасибо: 12461 / 214
Сообщения: 27968
Kiss - A Crazy Night With Kiss

Формат: DVDRip, AVI, XviD, MP3
Песня: A Crazy Night With Kiss
Жанр: Glam Rock
Продолжительность: 01:29:17
Год выпуска: 2003
Видео: MPEG 4 VIDEO, 640*480, (4:3), 25.0 fps, 2311 kbps,0,301 bit/pixel
Аудио: 44,1 khz, MP 3, 2 ch, 224 kbps avg
Доп. информация: Концерт, прошедший 22 апреля 1988 года, в Budokan Hall, Токио, Япония.
    Состав
    Paul Stanley - guitar/vocals
    Gene Simmons - bass/vocals
    Bruce Kulick - guitar
    Eric Carr - drums/vocals
    Треклист
01. Love Gun
02. Cold Gin
03. Bang Bang You
04. Calling Dr. Love
05. Fits Like A Glove
06. Crazy Crazy Nights
07. Bruce Solo
08. No, No, No
09. Reason To Live
10. Heaven's On Fire
11. Eric Solo
12. War Machine
13. I Love It Loud
14. Lick It Up
15. Black Diamond
16. I Was Made For Lovin’ You
17. Shout It Out Loud
18. Strutter
19. Rock And Roll All Nite
20. Detroit, Rock City

Общее
Полное имя: D:\Video\Kiss - A Crazy Night With Kiss\Kiss A Crazy Night With Kiss Part 1.avi
Формат: AVI
Формат/Информация: Audio Video Interleave
Профиль формата: OpenDML
Размер файла: 1,35 Гбайт
Продолжительность: 1 ч. 15 м.
Общий поток: 2550 Кбит/сек
Программа кодирования: Lavf51.12.1

Видео
Идентификатор: 0
Формат: xvid
Идентификатор кодека: xvid
Продолжительность: 1 ч. 15 м.
Битрейт: 2311 Кбит/сек
Ширина: 640 пикс.
Высота: 480 пикс.
Соотношение сторон: 4:3
Частота кадров: 25,000 кадр/сек
Бит/(Пиксели*Кадры): 0.301
Размер потока: 1,23 Гбайт (91%)

Аудио
Идентификатор: 1
Формат: MPEG Audio
Версия формата: Version 1
Профиль формата: Layer 3
Режим: Joint stereo
Расширение режима: MS Stereo
Идентификатор кодека: 55
Идентификатор кодека/Подсказка: MP3
Продолжительность: 1 ч. 15 м.
Вид битрейта: Постоянный
Битрейт: 224 Кбит/сек
Каналы: 2 канала
Частота: 44,1 КГц
Метод сжатия: С потерями
Размер потока: 122 Мбайт (9%)
Выравнивание: Соединение по промежуткам
Продолжительность промежутка: 26мс. (0,65 видеокадр)






[b]Поделиться:




реклама партнёра


Вернуться к началу
 Профиль  
 
   Похожие торренты   Автор   Торрент   Размер 
В этой теме нет новых непрочитанных сообщений. Скуби-Ду и KISS: Тайна рок-н-ролла / Scooby-Doo! And Kiss: Rock and Roll Mystery (Спайк Брандт, Тони Червоне) [Мультфильм, семейный, 2015] DVDRip, dub [Чистый звук]

Dracon

7 | 0

1.37 ГБ

В этой теме нет новых непрочитанных сообщений. Kiss - Monster (Limited Tour Edition) [2013, Hard Rock,Glam Rock, MP3]

PriZraK

4 | 3

110.48 МБ

В этой теме нет новых непрочитанных сообщений. Kiss - 40 Years - Decades Of Decibels (2CD) [2014, Hard Rock,Glam Metal, MP3]

PriZraK

5 | 3

346.92 МБ

В этой теме нет новых непрочитанных сообщений. Crazy Lixx - Crazy Lixx [2014, Hard Rock, Glam Rock, MP3]

PriZraK

22 | 6

110.4 МБ

В этой теме нет новых непрочитанных сообщений. Kid Rock - First Kiss [Deluxe Edition] (Rock, Country, Southern Rock. 2015) MP3 320 kbps

Aleksandr.ru

26 | 4

114.38 МБ

В этой теме нет новых непрочитанных сообщений. RPWL - Trying To Kiss The Sun [2002, Progressive Rock, MP3]

PriZraK

0 | 2

136.92 МБ

В этой теме нет новых непрочитанных сообщений. Miss Crazy - II [2008, Glam Hard Rock, MP3]

PriZraK

0 | 1

95.59 МБ


Начать новую тему Ответить на тему  [ 1 сообщение ] 




Для Мосгорсуда, Роскомнадзора и рекламодателей:: mosgorsud-torrent[собачка]yandex.ru