Торрент файл
скачать торрент магнет ссылка Добавлен: 08 янв 2012, 11:15
Размер: 1.62 ГБ
Сидеров: 0
Личеров: 5
Автор

СообщениеДобавлено: 08 янв 2012, 11:15 

Не в сети
Зам. Админа
Аватара пользователя
Дата регистрации:
02 дек 2010, 12:39
Спасибо: 12707 / 214
Сообщения: 27959
Kiss - A Crazy Night With Kiss

Формат: DVDRip, AVI, XviD, MP3
Песня: A Crazy Night With Kiss
Жанр: Glam Rock
Продолжительность: 01:29:17
Год выпуска: 2003
Видео: MPEG 4 VIDEO, 640*480, (4:3), 25.0 fps, 2311 kbps,0,301 bit/pixel
Аудио: 44,1 khz, MP 3, 2 ch, 224 kbps avg
Доп. информация: Концерт, прошедший 22 апреля 1988 года, в Budokan Hall, Токио, Япония.
    Состав
    Paul Stanley - guitar/vocals
    Gene Simmons - bass/vocals
    Bruce Kulick - guitar
    Eric Carr - drums/vocals
    Треклист
01. Love Gun
02. Cold Gin
03. Bang Bang You
04. Calling Dr. Love
05. Fits Like A Glove
06. Crazy Crazy Nights
07. Bruce Solo
08. No, No, No
09. Reason To Live
10. Heaven's On Fire
11. Eric Solo
12. War Machine
13. I Love It Loud
14. Lick It Up
15. Black Diamond
16. I Was Made For Lovin’ You
17. Shout It Out Loud
18. Strutter
19. Rock And Roll All Nite
20. Detroit, Rock City

Общее
Полное имя: D:\Video\Kiss - A Crazy Night With Kiss\Kiss A Crazy Night With Kiss Part 1.avi
Формат: AVI
Формат/Информация: Audio Video Interleave
Профиль формата: OpenDML
Размер файла: 1,35 Гбайт
Продолжительность: 1 ч. 15 м.
Общий поток: 2550 Кбит/сек
Программа кодирования: Lavf51.12.1

Видео
Идентификатор: 0
Формат: xvid
Идентификатор кодека: xvid
Продолжительность: 1 ч. 15 м.
Битрейт: 2311 Кбит/сек
Ширина: 640 пикс.
Высота: 480 пикс.
Соотношение сторон: 4:3
Частота кадров: 25,000 кадр/сек
Бит/(Пиксели*Кадры): 0.301
Размер потока: 1,23 Гбайт (91%)

Аудио
Идентификатор: 1
Формат: MPEG Audio
Версия формата: Version 1
Профиль формата: Layer 3
Режим: Joint stereo
Расширение режима: MS Stereo
Идентификатор кодека: 55
Идентификатор кодека/Подсказка: MP3
Продолжительность: 1 ч. 15 м.
Вид битрейта: Постоянный
Битрейт: 224 Кбит/сек
Каналы: 2 канала
Частота: 44,1 КГц
Метод сжатия: С потерями
Размер потока: 122 Мбайт (9%)
Выравнивание: Соединение по промежуткам
Продолжительность промежутка: 26мс. (0,65 видеокадр)






[b]Поделиться:



Вернуться к началу
 Профиль  
 
   Похожие торренты   Автор   Торрент   Размер 
В этой теме нет новых непрочитанных сообщений. Iris Kiss Kiss, Monroe Fox & Alexa Black - Вечеринка свингеров / Swingers Party (2021) WEB-DL 1080p

zorgi

9 | 0

1.16 ГБ

В этой теме нет новых непрочитанных сообщений. [Anal-Angels.com / TeenMegaWorld.net] Iris Kiss Kiss - Hard sex to help plants grow (11.02.2022) [Anal, Anal Creampie, All Sex]

zorgi

2 | 0

465.58 МБ

В этой теме нет новых непрочитанных сообщений. [PornWorld.com] Cherry Kiss, Brittany Bardot - Wild DP Orgy with Cherry Kiss, Busty MILF Brittany Bardot, and Teenage Son (01.04.2022) [DP, Anal, Group, All Sex]

zorgi

2 | 0

355.74 МБ

В этой теме нет новых непрочитанных сообщений. Cherry Kiss & Veronica Leal - Homemade Anal Pee Orgy with Cherry Kiss & Veronica Leal OTS061 (2020) WEB-DL 1080p

zorgi

2 | 1

5.01 ГБ

В этой теме нет новых непрочитанных сообщений. Wicked - Поцелуй / The Kiss (1995) DVDRip

zorgi

0 | 0

1.37 ГБ

В этой теме нет новых непрочитанных сообщений. Cherry Kiss - Круиз удовольствия / Pleasure Cruise / Baby Loves A Big Dick (2011) DVDRip

zorgi

8 | 0

444.36 МБ

В этой теме нет новых непрочитанных сообщений. Lisey Sweet - Kiss Me Like You Mean It (2019) SiteRip

zorgi

0 | 2

232.13 МБ


Начать новую тему Ответить на тему  [ 1 сообщение ] 




Для Мосгорсуда, Роскомнадзора и рекламодателей:: rstracker[собака]yandex.ru
cron