Торрент файл
скачать торрент магнет ссылка Добавлен: 08 янв 2012, 11:15
Размер: 1.81 ГБ
Сидеров: 6
Личеров: 3
Автор

СообщениеДобавлено: 08 янв 2012, 11:15 

Не в сети
Зам. Админа
Аватара пользователя
Дата регистрации:
02 дек 2010, 12:39
Спасибо: 12623 / 214
Сообщения: 28012
Manowar - Hell On Earth - Part 1


Формат: DVDRip, AVI, XviD, MP3
Песня: Hell On Earth - Part 1
Жанр: Heavy Metal
Продолжительность: 02:11:00
Год выпуска: 2001
Видео: MPEG 4 VIDEO, 640*480, (4:3), 25.0 fps, 1770 kbps,0,230 bit/pixel
Аудио: 44,1 khz, MP 3, 2 ch, 192 kbps avg
Доп. информация: Съёмки концертных выступлений в Чикаго, Мадриде, Южной Америке. Видеоклипы Courage, Return Of The Warlord. Интервью с музыкантами группы. И многое, многое другое...

Треклист

01. Manowar
02. Karl Joins
03. Scott Columbus Returns
04. Courage
05. Return Of The Warlord
06. Chicago
07. Madrid
08. South America
09. New Year's Eve
10. Commercial Shoot
11. Motorcycle Madness
12. Hell On Wheels Tour
13. The Power
14. Bull Fight
15. Carry On
16. Last Night
17. Gods of Metal / Spirit Horse
18. With Full Force / King
19. Daytona / Kill With Power
20. Hail And Kill
21. Credits

Bonus

01. Kings Of Metal - Live Festival - Essen, GER
02. Hinrich's Birthday
03. King - Live In Recording Studio - Hamburg, GER
Общее
Полное имя: D:\Video\Manowar - Hell on Earth I\Hell On Earth part 1.avi
Формат: AVI
Формат/Информация: Audio Video Interleave
Профиль формата: OpenDML
Размер файла: 1,62 Гбайт
Продолжительность: 1 ч. 57 м.
Общий поток: 1975 Кбит/сек
Программа кодирования: Lavf51.12.1

Видео
Идентификатор: 0
Формат: xvid
Идентификатор кодека: xvid
Продолжительность: 1 ч. 57 м.
Битрейт: 1770 Кбит/сек
Ширина: 640 пикс.
Высота: 480 пикс.
Соотношение сторон: 4:3
Частота кадров: 25,000 кадр/сек
Бит/(Пиксели*Кадры): 0.230
Размер потока: 1,45 Гбайт (90%)

Аудио
Идентификатор: 1
Формат: MPEG Audio
Версия формата: Version 1
Профиль формата: Layer 3
Режим: Joint stereo
Идентификатор кодека: 55
Идентификатор кодека/Подсказка: MP3
Продолжительность: 47 м.
Вид битрейта: Постоянный
Битрейт: 192 Кбит/сек
Каналы: 2 канала
Частота: 44,1 КГц
Метод сжатия: С потерями
Размер потока: 65,1 Мбайт (4%)
Выравнивание: Соединение по промежуткам
Продолжительность промежутка: 65мс. (1,62 видеокадра)







[b]Поделиться:




реклама партнёра


Вернуться к началу
 Профиль  
 
   Похожие торренты   Автор   Торрент   Размер 
В этой теме нет новых непрочитанных сообщений. VA - Heavy Metal: Louder Than Life [2015, Hard Rock, Melodic Heavy Metal, Heavy Metal, MP3]

Nickolas3435

0 | 272

2.43 ГБ

В этой теме нет новых непрочитанных сообщений. Сборник клипов - Hard Rock and Metal: Part 4 [Rock, Metal, 2017] DVDRip

salma3

6 | 3

4.19 ГБ

В этой теме нет новых непрочитанных сообщений. Исполнитель желаний 3: Камень Дьявола / Wishmaster 3: Beyond the Gates of Hell [фэнтези, ужасы, 2001] WEB-DL 720p, Mvo

salma3

52 | 9

3.13 ГБ

В этой теме нет новых непрочитанных сообщений. Accept - Heavy Ballads (Heavy Metal. 2015) MP3

Aleksandr.ru

403 | 34

363.25 МБ

В этой теме нет новых непрочитанных сообщений. W.A.S.P. - Golgotha [2015, Heavy Metal, Glam Metal, Hard Rock, MP3]

salma3

0 | 0

108.17 МБ

В этой теме нет новых непрочитанных сообщений. [BrazzersExxtra.com / Brazzers.com] Anya Olsen - The Bang Ring: Part 3 (19.09.2017) [Anal, 3 Part Series, Blonde, Blowjob (POV), Cowgirl (POV), Natural Tits, Oil]

salma3

38 | 13

700.31 МБ

В этой теме нет новых непрочитанных сообщений. [BrazzersExxtra.com / Brazzers.com] Anya Olsen - The Bang Ring: Part 3 (19.09.2017) [Anal, 3 Part Series, Blonde, Blowjob (POV), Cowgirl (POV), Natural Tits, Oil]

salma3

38 | 13

371.09 МБ


Начать новую тему Ответить на тему  [ 1 сообщение ] 




Для Мосгорсуда, Роскомнадзора и рекламодателей:: mosgorsud-torrent[собачка]yandex.ru