Торрент файл
скачать торрент магнет ссылка Добавлен: 08 янв 2012, 11:14
Размер: 5.67 ГБ
Сидеров: 3
Личеров: 4
Автор

СообщениеДобавлено: 08 янв 2012, 11:14 

Не в сети
Зам. Админа
Аватара пользователя
Дата регистрации:
02 дек 2010, 12:39
Спасибо: 12461 / 214
Сообщения: 27968
Megadeth - Blood In The Water/Live In San Diego

Формат: DVD5, DVD Video, MPEG2, PCM
Песня: Blood In The Water/Live In San Diego
Жанр: Thrash Metal
Продолжительность: 01:22:00
Год выпуска: 2008
Видео: MPEG 2 VIDEO, 720*480, (NTSC 16:9), 29.97 fps, 8200 kbps avg,0,792 bit/pixel
Аудио: 48.0 khz, PCM, 2 ch, 1536 kbps avg
Доп. информация: Концерт, состоявшийся 20 мая 2008 года, в Сан-Диего, Калифорния, США.
    Состав
Dave Mustaine - Guitar & Vocals
Chris Broderick - Guitar
James Lomenzo - Bass
Shawn Drover - Drums
    Треклист

01. Opening
02. Sleepwalker
03. Wake Up Dead
04. Take No Prisoners
05. Skin O' My Teeth
06. Washington Is Next
07. Kick The Chair
08. In My Darkest Hour
09. Hangar 18
10. Burnt Ice
11. A Tout Le Monde
12. Tornado Of Souls
13. Ashes In Your Mouth
14. Symphony Of Destruction
15. Trust
16. Peace Sells...But Who's Buying
17. Holy Wars
Title: Megadeth - Blood in the Water
Size: 5.67 Gb ( 5 940 748,00 KBytes ) - DVD-9
Enabled regions: 1, 2, 3, 4, 5, 6, 7, 8

VTS_01 :
Play Length: 01:22:00
Video: NTSC 16:9 (720x480) VBR, Auto Letterboxed
Audio:
Not specified, LPCM, Delay = 0 mSec

* Menus Information *
Общее
Полное имя: D:\Torrents\Download\Megadeth - Blood in the Water\VIDEO_TS\VTS_01_1.VOB
Формат: MPEG-PS
Размер файла: 1024 Мбайт
Продолжительность: 14 м.
Общий поток: 9884 Кбит/сек

Видео
Идентификатор: 224 (0xE0)
Формат: MPEG Video
Версия формата: Version 2
Профиль формата: Main@Main
Параметр BVOP формата: Нет
Параметр матрицы формата: По умолчанию
Параметры GOP формата: M=1, N=15
Продолжительность: 14 м.
Вид битрейта: Переменный
Битрейт: 8200 Кбит/сек
Ширина: 720 пикс.
Высота: 480 пикс.
Соотношение сторон: 16:9
Частота кадров: 29,970 кадр/сек
Стандарт вещания: NTSC
Цветовое пространство: YUV
Подвыборка цветности: 4:2:0
Битовая глубина: 8 бит
Тип развёртки: Чересстрочная
Порядок развёртки: Нижнее поле первое
Метод сжатия: С потерями
Бит/(Пиксели*Кадры): 0.792
Размер потока: 844 Мбайт (82%)

Аудио
Идентификатор: 160 (0xA0)
Формат: PCM
Параметр Endianness формата: Big
Параметр Sign формата: Signed
Режим смешивания: DVD-Video
Продолжительность: 14 м.
Вид битрейта: Постоянный
Битрейт: 1536 Кбит/сек
Каналы: 2 канала
Расположение каналов: Front: L R
Частота: 48,0 КГц
Битовая глубина: 16 бит
Размер потока: 159 Мбайт (16%)

Меню








[b]Поделиться:




реклама партнёра


Вернуться к началу
 Профиль  
 
   Похожие торренты   Автор   Торрент   Размер 
В этой теме нет новых непрочитанных сообщений. Megadeth - Countdown To Extinction: Live [2013, Heavy Metal, Thrash Metal, MP3]

PriZraK

1 | 2

183.96 МБ

В этой теме нет новых непрочитанных сообщений. Megadeth - Icon (Compilation) [2014, Heavy Metal, Thrash Metal, MP3]

PriZraK

23 | 2

118.93 МБ

В этой теме нет новых непрочитанных сообщений. Megadeth - Super Collider (Best Buy Exclusive Edition) [2013, Heavy Metal,Thrash Metal, MP3]

PriZraK

4 | 2

131.07 МБ

В этой теме нет новых непрочитанных сообщений. Megadeth - Th1rt3en [2011, Thrash Metal, Heavy Metal, MP3]

PriZraK

3 | 2

132.19 МБ

В этой теме нет новых непрочитанных сообщений. Megadeth - Never Dead (New Track) [09.2011, Thrash Metal, MP3]

PriZraK

1 | 2

8.98 МБ

В этой теме нет новых непрочитанных сообщений. Megadeth - Countdown To Extinction - [20th Anniversary Edition] [2012, Heavy, Thrash Metal, MP3]

PriZraK

1 | 3

480.56 МБ

В этой теме нет новых непрочитанных сообщений. Exodus - Blood In, Blood Out [2014, Thrash Metal, MP3]

PriZraK

19 | 2

154.82 МБ


Начать новую тему Ответить на тему  [ 1 сообщение ] 




Для Мосгорсуда, Роскомнадзора и рекламодателей:: mosgorsud-torrent[собачка]yandex.ru