Торрент файл
скачать торрент магнет ссылка Добавлен: 08 янв 2012, 11:13
Размер: 4.26 ГБ
Сидеров: 23
Личеров: 6
Автор

СообщениеДобавлено: 08 янв 2012, 11:13 

Не в сети
Зам. Админа
Аватара пользователя
Дата регистрации:
02 дек 2010, 12:39
Спасибо: 12461 / 214
Сообщения: 27968
Глюкоза - Видеография

Формат: DVD5, DVD Video, MPEG2, AC3
Песня: Видеография
Жанр: Рор
Продолжительность: 02:35:51
Год выпуска: 2003-2011

Видео: 720x576 (PAL 4:3), 25 fps, MPEG-2, ~3263 kbps avg, 0.315 bit/pixel
Аудио: 48 kHz, AC-3, 6 ch (Front: L C R, Side: L R, LFE), 448.00 kbps avg

Доп. информация: Глюк'zа - она же Наташа Ионова.Родилась в Поволжье. Постоянное место жительство - Москва. Окончила среднюю общеобразовательную школу. Наташка - Глюк, Глюка, Глючка. Пронырливая, вездесущая и рисковая. Стиль жизни - пацан в юбке. Вольная, но чувствительная. Ранимая, но всегда может дать сдачи. Если сидела дома, то только за компом. Предпочитает компанию мальчишек девичьим посиделкам. "Родной дом" - улица, дворы, заводы, стройки. Записывалась во всевозможные детские кружки от балета до шахмат. Училась неплохо, но без особого рвения. Снималась в Ералаше, в клипе Юры Шатунова, в художественном фильме "Триумф". Не афиширует свой кинематографический опыт - "Было дело, а что?". Предпочтения в музыке – Мадонна, Эминем, Моби, музыка сёрф.
P.S. - сборка, качество от хорошего DVDRip до слабого VHSRip

01 Nostra
02 Невеста
03 Малыш (Live)
04 Ой, Ой(Live)
05 Свадьба
06 Ненавижу
07 Бабочки
08 Снег идет
09 Швайне
10 Дочка
11 Аста ла Виста (Live)
12 Юра
13 Танцуй, Россия
14 Жениха хотела (Live)
15 Корабли (Live)
16 Вот такая любовь
17 Москва
18 Ой, ой (Live)
19 Горилла
20 Деньги (Live)
21 Снег идет (Live)
22 Хочу мужчину
23 Маленький Принц (Live)
24 High Sign
25 К чёрту..(Live)
26 Сицилия (Live)
27 Взмах
28 Шуга (Live)
29 Бабочки (Песня года 200
30 Москва(Live)
31 Как в детстве
32 Танцуй Россия (Голубой огонек 09)
33 Ля мур (Live)
34 Горилла(Live)
35 Вокзал(Live)
36 Невеста (Live)
37 Малыш mix (Live)
38 Карина (Live)

Общее
Формат: MPEG-PS
Общий поток: 3786 Кбит/сек

Видео
Идентификатор: 224 (0xE0)
Формат: MPEG Video
Версия формата: Version 2
Профиль формата: Main@Main
Параметр BVOP формата: Да
Параметр матрицы формата: По умолчанию
Параметры GOP формата: M=3, N=13
Вид битрейта: Переменный
Битрейт: 3263 Кбит/сек
Номинальный битрейт: 9008 Кбит/сек
Ширина: 720 пикс.
Высота: 576 пикс.
Соотношение сторон: 4:3
Частота кадров: 25,000 кадр/сек
Стандарт вещания: PAL
Цветовое пространство: YUV
Подвыборка цветности: 4:2:0
Битовая глубина: 8 бит
Тип развёртки: Прогрессивная
Метод сжатия: С потерями
Бит/(Пиксели*Кадры): 0.315
Размер потока: 882 Мбайт (86%)

Аудио
Идентификатор: 128 (0x80)
Формат: AC-3
Формат/Информация: Audio Coding 3
Расширение режима: CM (complete main)
Вид битрейта: Постоянный
Битрейт: 448 Кбит/сек
Канал(ы): 6 канала(ов)
Расположение каналов: Front: L C R, Side: L R, LFE
Частота: 48,0 КГц
Битовая глубина: 16 бит
Метод сжатия: С потерями
Размер потока: 121 Мбайт (12%)














Поделиться:




реклама партнёра


Вернуться к началу
 Профиль  
 
   Похожие торренты   Автор   Торрент   Размер 
В этой теме нет новых непрочитанных сообщений. Тупик / Dead End [ужасы, триллер, 2003] DVD5, Mvo+Sub

salma3

26 | 2

4.21 ГБ

В этой теме нет новых непрочитанных сообщений. За гранью времен / Beyond the Limits [ужасы, триллер, 2003] DVD5, Mvo

salma3

21 | 6

3.73 ГБ

В этой теме нет новых непрочитанных сообщений. Collage - Safe [Remastered 2003] [2003, Neo-Prog. Rock, MP3]

PriZraK

0 | 1

183.11 МБ

В этой теме нет новых непрочитанных сообщений. Реаниматор - Долина Теней (Demo 2003-2011) (Compilation) [2011, Heavy Metal, Gothic Metal, MP3]

PriZraK

1 | 4

97.46 МБ

В этой теме нет новых непрочитанных сообщений. Procol Harum - Greatest Hits 1967-2003 [3CD] [2011, Rock, MP3]

PriZraK

0 | 1

594.83 МБ

В этой теме нет новых непрочитанных сообщений. Освенцим / Auschwitz [драма, 2011] DVD5, Mvo+Sub [лицензия]

Dracon

57 | 7

3.77 ГБ

В этой теме нет новых непрочитанных сообщений. Уловка .44 / Catch .44 [триллер, драма, криминал, 2011] DVD5, Mvo+Sub

salma3

10 | 8

4.37 ГБ


Начать новую тему Ответить на тему  [ 1 сообщение ] 




Для Мосгорсуда, Роскомнадзора и рекламодателей:: mosgorsud-torrent[собачка]yandex.ru