Торрент файл
скачать торрент магнет ссылка Добавлен: 08 янв 2012, 11:13
Размер: 11.93 ГБ
Сидеров: 4
Личеров: 9
Автор

СообщениеДобавлено: 08 янв 2012, 11:13 

Не в сети
Зам. Админа
Аватара пользователя
Дата регистрации:
02 дек 2010, 12:39
Спасибо: 12460 / 214
Сообщения: 27968
Metallica - Cunning Stunts


Формат: DVD9 + DVD5, DVD Video, MPEG2, AC3
Песня: Cunning Stunts
Жанр: Thrash Metal
Продолжительность: 01:40:29 + 00:29:46
Год выпуска: 1998
Видео Disc 1: MPEG 2 VIDEO, 720*480, (NTSC 4:3), 29.97 fps, ~6424 kbps avg,0,620 bit/pixel
Аудио Disc 1 #1: 48.0 khz, AC-3, 2 ch, 256 kbps avg
Аудио Disc 1 #2: 48.0 khz, AC-3, 6 ch, 448 kbps avg
Видео Disc 2: MPEG 2 VIDEO, 720*480, (NTSC 4:3), 29.97 fps, ~8202 kbps avg, 0, 792 bit/pixel
Аудио Disc 2 #1: 48,0 khz, AC-3, 2 ch, 256 kbps avg
Аудио Disc 2 #2: 48.0 khz, AC-3, 6 ch, 448 kbps avg
Доп. информация: Концерт, состоявшийся 9-10 мая 1997 года, в Форт Ворт, Техас, США. В качестве бонусов: репетиции и подготовка к выступлению. Комментарии музыкантов группы, зрителей, персонала.
    Состав

James Hethfield - rhythm guitar/vocals
Kirk Hammet - lead guitar
Jason Newstad - bass guitar
Lars Ulrich - drums


01. So What
02. Creeping Death
03. Sad But True
04. Ain't My Bitch
05. Hero Of The Day
06. King Nothing
07. One
08. Fuel
09. Bass/Guitar Doodle
10. Nothing Else Matters
11. Until It Sleeps
12. For Whom The Bell Tolls
13. Wherever I May Roam
14. Fade To Black
15. Kill/Ride Medley

Bonus

01. Back Stage Pre-show
02. Fans
03. Dan Braun And Production
04. JB And The Lights
05. New Stage
Title: Disc 1
Size: 7.72 Gb ( 8 094 586,00 KBytes ) - DVD-9
Enabled regions: 1, 2, 3, 4, 5, 6

VTS_01 :
Play Length: 01:40:29
Video: NTSC 4:3 (720x480) VBR
Audio:
English, AC3, 2/0 (L,R) ch, 256 kbps, Delay 0 mSec
English, AC3, 3/2 (L,C,R,SL,SR)+LFE ch, 448 kbps, Delay 0 mSec

Subtitles:
English

VTS_02 :
Play Length: 00:07:56+00:01:02+00:02:16+00:02:24+00:04:05
Video: NTSC 4:3 (720x480) VBR
Audio:
English (Dolby AC3, 2 ch)

* Menus Information *

VIDEO_TS Menu
Video:
NTSC 4:3 (720x480) VBR
Audio:
Not specified (Dolby AC3, 2 ch)
English Language Unit :
Title Menu

VTS_01 Menu
Video:
NTSC 4:3 (720x480) VBR
Audio:
Not specified (Dolby AC3, 2 ch)
English Language Unit :
Root Menu
Subpicture Menu
Audio Menu
Angle menu
Chapter (PTT) Menu

VTS_02 Menu
Video:
NTSC 4:3 (720x480) VBR
Audio:
Not specified (Dolby AC3, 2 ch)
English Language Unit :
Root Menu
Общее
Полное имя: D:\Torrents\Download\Metallica - Cunning Stunts\Disc 1\VIDEO_TS\VTS_01_1.VOB
Формат: MPEG-PS
Размер файла: 1024 Мбайт
Продолжительность: 19 м.
Общий поток: 7270 Кбит/сек

Видео
Идентификатор: 224 (0xE0)
Формат: MPEG Video
Версия формата: Version 2
Профиль формата: Main@Main
Параметр BVOP формата: Да
Параметр матрицы формата: По умолчанию
Продолжительность: 19 м.
Вид битрейта: Переменный
Битрейт: 6421 Кбит/сек
Ширина: 720 пикс.
Высота: 480 пикс.
Соотношение сторон: 4:3
Частота кадров: 29,970 кадр/сек
Стандарт вещания: NTSC
Цветовое пространство: YUV
Подвыборка цветности: 4:2:0
Битовая глубина: 8 бит
Метод сжатия: С потерями
Бит/(Пиксели*Кадры): 0.620
Размер потока: 904 Мбайт (88%)

Аудио #1
Идентификатор: 128 (0x80)
Формат: AC-3
Формат/Информация: Audio Coding 3
Расширение режима: CM (complete main)
Продолжительность: 19 м.
Вид битрейта: Постоянный
Битрейт: 256 Кбит/сек
Каналы: 2 канала
Расположение каналов: Front: L R
Частота: 48,0 КГц
Битовая глубина: 16 бит
Метод сжатия: С потерями
Задержка видео: -66 мс.
Размер потока: 36,0 Мбайт (4%)

Аудио #2
Идентификатор: 129 (0x81)
Формат: AC-3
Формат/Информация: Audio Coding 3
Расширение режима: CM (complete main)
Продолжительность: 19 м.
Вид битрейта: Постоянный
Битрейт: 448 Кбит/сек
Каналы: 6 каналов
Расположение каналов: Front: L C R, Side: L R, LFE
Частота: 48,0 КГц
Битовая глубина: 16 бит
Метод сжатия: С потерями
Задержка видео: -66 мс.
Размер потока: 63,1 Мбайт (6%)

Текст #1
Идентификатор: 224 (0xE0)-DVD-2
Формат: EIA-608
Режим смешивания: DVD-Video
Режим смешивания, доп. информаци : Muxed in Video #1
Размер потока: 0,00 байт (0%)

Текст #2
Идентификатор: 32 (0x20)
Формат: RLE
Формат/Информация: Run-length encoding

Меню











16. Last Caress
17. Master Of Puppets
18. Enter Sandman
19. Am I Evil?
20.Motorbreath

Bonus

01. Interacting With The Fans
02. Rob And Joe
03. Kirk And Guitars
04. Big Mick
05. Final Destruction
06. Flaming Dude
07. Bob Bender
08. Photo Gallery
Title: Disc 2
Size: 4.21 Gb ( 4 414 204,00 KBytes ) - DVD-5
Enabled regions: 1, 2, 3, 4, 5, 6

VTS_01 :
Play Length: 00:29:46
Video: NTSC 4:3 (720x480) VBR
Audio:
English (Dolby AC3, 2 ch)
English (Dolby AC3, 6 ch)
Subtitles:
English

VTS_02 :
Play Length: 00:03:11+00:01:52+00:03:44+00:01:47+00:05:30+00:01:59+00:02:29+00:23:30+00:25:06
Video: NTSC 4:3 (720x480) VBR
Audio:
English (Dolby AC3, 2 ch)

* Menus Information *

VIDEO_TS Menu
Video:
NTSC 4:3 (720x480) VBR
English Language Unit :
Title Menu

VTS_01 Menu
Video:
NTSC 4:3 (720x480) VBR
Audio:
Not specified (Dolby AC3, 2 ch)
English Language Unit :
Root Menu
Subpicture Menu
Audio Menu
Chapter (PTT) Menu

VTS_02 Menu
Video:
NTSC 4:3 (720x480) VBR
Audio:
Not specified (Dolby AC3, 2 ch)
English Language Unit :
Root Menu
Общее
Полное имя: D:\Torrents\Download\Metallica - Cunning Stunts\Disc 2\VIDEO_TS\VTS_01_1.VOB
Формат: MPEG-PS
Размер файла: 1024 Мбайт
Продолжительность: 15 м.
Общий поток: 9065 Кбит/сек

Видео
Идентификатор: 224 (0xE0)
Формат: MPEG Video
Версия формата: Version 2
Профиль формата: Main@Main
Параметр BVOP формата: Да
Параметр матрицы формата: По умолчанию
Продолжительность: 15 м.
Вид битрейта: Постоянный
Битрейт: 8202 Кбит/сек
Ширина: 720 пикс.
Высота: 480 пикс.
Соотношение сторон: 4:3
Частота кадров: 29,970 кадр/сек
Стандарт вещания: NTSC
Цветовое пространство: YUV
Подвыборка цветности: 4:2:0
Битовая глубина: 8 бит
Метод сжатия: С потерями
Бит/(Пиксели*Кадры): 0.792
Размер потока: 924 Мбайт (90%)

Аудио #1
Идентификатор: 128 (0x80)
Формат: AC-3
Формат/Информация: Audio Coding 3
Расширение режима: CM (complete main)
Продолжительность: 15 м.
Вид битрейта: Постоянный
Битрейт: 256 Кбит/сек
Каналы: 2 канала
Расположение каналов: Front: L R
Частота: 48,0 КГц
Битовая глубина: 16 бит
Метод сжатия: С потерями
Задержка видео: -66 мс.
Размер потока: 28,9 Мбайт (3%)

Аудио #2
Идентификатор: 129 (0x81)
Формат: AC-3
Формат/Информация: Audio Coding 3
Расширение режима: CM (complete main)
Продолжительность: 15 м.
Вид битрейта: Постоянный
Битрейт: 448 Кбит/сек
Каналы: 6 каналов
Расположение каналов: Front: L C R, Side: L R, LFE
Частота: 48,0 КГц
Битовая глубина: 16 бит
Метод сжатия: С потерями
Задержка видео: -66 мс.
Размер потока: 50,6 Мбайт (5%)

Текст
Идентификатор: 224 (0xE0)-DVD-2
Формат: EIA-608
Режим смешивания: DVD-Video
Режим смешивания, доп. информаци : Muxed in Video #1
Размер потока: 0,00 байт (0%)

Меню
















Поделиться:




реклама партнёра


Вернуться к началу
 Профиль  
 
   Похожие торренты   Автор   Торрент   Размер 
В этой теме нет новых непрочитанных сообщений. Metallica - Through The Never (2 CD) [2013, Thrash Metal, MP3]

PriZraK

17 | 5

231.56 МБ

В этой теме нет новых непрочитанных сообщений. Metallica - Live in Tokyo [2013, Thrash Metal, Heavy Metal, MP3]

PriZraK

10 | 3

287.78 МБ

В этой теме нет новых непрочитанных сообщений. Metallica - Beyond Magnetic (EP) [12.2011, Heavy Metal, Thrash Metal, MP3]

PriZraK

4 | 3

67.05 МБ

В этой теме нет новых непрочитанных сообщений. Metallica - Metal Up Your Ass Dude [2011, Thrash Metal, MP3]

PriZraK

2 | 3

157.72 МБ

В этой теме нет новых непрочитанных сообщений. VA - Metallica A Tribute To Kill 'Em All (MAG) [2013, Thrash Metal, MP3]

PriZraK

15 | 3

106.11 МБ

В этой теме нет новых непрочитанных сообщений. Metallica - The Instrumentals [2012, Thrash Metal, Instrumental, MP3]

PriZraK

39 | 4

315.69 МБ

В этой теме нет новых непрочитанных сообщений. Metallica - Freeze 'Em All: Live in Antarctica [2013, Thrash Metal, MP3]

PriZraK

18 | 6

170.94 МБ


Начать новую тему Ответить на тему  [ 1 сообщение ] 




Для Мосгорсуда, Роскомнадзора и рекламодателей:: mosgorsud-torrent[собачка]yandex.ru