Торрент файл
скачать торрент магнет ссылка Добавлен: 08 янв 2012, 11:12
Размер: 4.37 ГБ
Сидеров: 3
Личеров: 7
Автор

СообщениеДобавлено: 08 янв 2012, 11:12 

Не в сети
Зам. Админа
Аватара пользователя
Дата регистрации:
02 дек 2010, 12:39
Спасибо: 12461 / 214
Сообщения: 27968
Глюкоза - Концерты в NowБой и в Концертном зале RuTV

Формат: DVD5, DVD Video, MPEG2, MP2
Песня: Концерты в NowБой и в Концертном зале RuTV
Жанр: Рор
Продолжительность: 01:58:08
Год выпуска: 2011

Доп. информация:
Glukoza - NowБой01:01:15

Видео: 704x576 (PAL 4:3), 25 fps, MPEG-2 ~4163 kbps avg, 0.411 bit/pixel
Аудио: 48 kHz, MPEG Layer 2, 2 ch, 256.00 kbps avg

Зрелищное выступление российской певицы Глюк'оZы, состоявшийся в апреле этого года в клубе «Б2» с названием «NOWБой». Уникальность его заключается в том, что впервые в истории российской музыки зрители увидели не простое выступление, а выступление в формате 3D.
01.Невеста
02.Дочка
03.Москва
04.Жениха хотела
05.GlukozaNostra
06.Аста ла виста
07.Взмах
08.Снег идёт
09.Пипец
10.Ля мур
11.Crime
12.Schweine
13.Малыш
14.Бабочки
15.Выстрел в спину
16.Карина

Общее
Формат: MPEG-PS
Общий поток: 4509 Кбит/сек

Видео
Идентификатор: 224 (0xE0)
Формат: MPEG Video
Версия формата: Version 2
Профиль формата: Main@Main
Параметр BVOP формата: Да
Параметр матрицы формата: По умолчанию
Вид битрейта: Переменный
Битрейт: 4163 Кбит/сек
Номинальный битрейт: 10000 Кбит/сек
Ширина: 704 пикс.
Высота: 576 пикс.
Соотношение сторон: 4:3
Частота кадров: 25,000 кадр/сек
Стандарт вещания: PAL
Цветовое пространство: YUV
Подвыборка цветности: 4:2:0
Битовая глубина: 8 бит
Тип развёртки: Чересстрочная
Порядок развёртки: Верхнее поле первое
Метод сжатия: С потерями
Бит/(Пиксели*Кадры): 0.411
Размер потока: 945 Мбайт (92%)

Аудио
Идентификатор: 192 (0xC0)
Формат: MPEG Audio
Версия формата: Version 1
Профиль формата: Layer 2
Вид битрейта: Постоянный
Битрейт: 256 Кбит/сек
Канал(ы): 2 канала(ов)
Частота: 48,0 КГц
Метод сжатия: С потерями
Задержка видео: -40 мс.
Размер потока: 58,1 Мбайт (6%)









Глюк'oZa в Концертном зале RuTV 00:56:53
Видео: 720x576 (PAL 4:3), 25 fps, MPEG-2 ~5700 kbps avg, 0.550 bit/pixel
Аудио: 48 kHz, MPEG Layer 2, 2 ch, 192.00 kbps avg

Фееричный концерт в Концертном зале RuTV певицы Глюк'оZы, которая не просто мультипликационный персонаж, а современная модная девушка, песни которой знает вся страна.
01. Невеста
02. Снег идёт
03. Пипец
04. Дочка
05. Москва
06. Бабочки
07. Жениха хотела
08. Вот такая любовь
09. Танцуй, Россия!
10. Карина
11. Аста ла виста
12. Ля мур
13. Выстрел в спину
14. Взмах
15. Малыш

Общее
Формат: MPEG-PS
Общий поток: 6012 Кбит/сек

Видео
Идентификатор: 224 (0xE0)
Формат: MPEG Video
Версия формата: Version 2
Профиль формата: Main@Main
Параметр BVOP формата: Да
Параметр матрицы формата: По умолчанию
Параметры GOP формата: M=3, N=13
Вид битрейта: Переменный
Битрейт: 5700 Кбит/сек
Номинальный битрейт: 9200 Кбит/сек
Ширина: 720 пикс.
Высота: 576 пикс.
Соотношение сторон: 4:3
Частота кадров: 25,000 кадр/сек
Стандарт вещания: PAL
Цветовое пространство: YUV
Подвыборка цветности: 4:2:0
Битовая глубина: 8 бит
Тип развёртки: Прогрессивная
Метод сжатия: С потерями
Бит/(Пиксели*Кадры): 0.550
Размер потока: 971 Мбайт (95%)

Аудио
Идентификатор: 192 (0xC0)
Формат: MPEG Audio
Версия формата: Version 1
Профиль формата: Layer 2
Вид битрейта: Постоянный
Битрейт: 192 Кбит/сек
Канал(ы): 2 канала(ов)
Частота: 48,0 КГц
Метод сжатия: С потерями
Задержка видео: -400 мс.
Размер потока: 32,7 Мбайт (3%)













Поделиться:




реклама партнёра


Вернуться к началу
 Профиль  
 
   Похожие торренты   Автор   Торрент   Размер 
В этой теме нет новых непрочитанных сообщений. Освенцим / Auschwitz [драма, 2011] DVD5, Mvo+Sub [лицензия]

Dracon

57 | 7

3.77 ГБ

В этой теме нет новых непрочитанных сообщений. Уловка .44 / Catch .44 [триллер, драма, криминал, 2011] DVD5, Mvo+Sub

salma3

10 | 8

4.37 ГБ

В этой теме нет новых непрочитанных сообщений. Военные игры / War Games: At the End of the Day [Триллер, боевик, ужасы, 2011] DVD5, Mvo

salma3

15 | 11

4.35 ГБ

В этой теме нет новых непрочитанных сообщений. Маленький убийца / Little Murder [триллер, драма, 2011] DVD5, Mvo [лицензия]

salma3

0 | 2

3.93 ГБ

В этой теме нет новых непрочитанных сообщений. Многоэтажка / Небоскреб смерти / Tower Block [триллер, 2011] DVD5, Mvo+Sub

salma3

9 | 7

4.32 ГБ

В этой теме нет новых непрочитанных сообщений. Последний час Земли / Earth's Final Hours [Фантастика, 2011] DVD5, Mvo [Лицензия]

salma3

41 | 14

4.01 ГБ

В этой теме нет новых непрочитанных сообщений. 12 Рождественских желаний / 12 Wishes of Christmas [фэнтези, комедия, 2011] DVD5, Mvo [лицензия]

salma3

48 | 7

3.92 ГБ


Начать новую тему Ответить на тему  [ 1 сообщение ] 




Для Мосгорсуда, Роскомнадзора и рекламодателей:: mosgorsud-torrent[собачка]yandex.ru