Торрент файл
скачать торрент магнет ссылка Добавлен: 08 янв 2012, 11:11
Размер: 4.14 ГБ
Сидеров: 2
Личеров: 3
Автор

СообщениеДобавлено: 08 янв 2012, 11:11 

Не в сети
Зам. Админа
Аватара пользователя
Дата регистрации:
02 дек 2010, 12:39
Спасибо: 12461 / 214
Сообщения: 27968
Motley Crue - Crue Fest

Формат: DVD5, DVD Video, MPEG2, AC3
Песня: Crue Fest
Жанр: Glam Rock
Продолжительность: 01:34:13
Год выпуска: 2009
Видео: MPEG 2 VIDEO, 720*480, (NTSC 16:9), 23.976 fps, ~5353 kbps avg,0,646 bit/pixel
Аудио #1: 48,0 khz, AC-3, 2 ch, 192 kbps avg
Аудио #2: 48,0 khz, AC-3, 6 ch, 448 kbps avg
Доп. информация: Концерт в Молсон Амфитеатре, Торонто, Канада. 28 августа 2008 года.
    Треклист

01. Kickstart My Heart
02. Wild Side
03. Shout At The Devil
04. Saints Of Los Angeles
05. Live Wire
06. Sick Love Song
07. Tit E Cam
08. Mother Fucker Of the Year
09. Don’t Go Away Mad
10. Same Ol’ Situation
11. Primal Scream
12. Looks That Kill
13. Girls Girls Girls
14. Dr. Feelgood
15. Home Sweet Home
Title: Motley Crue - Crue Fest
Size: 4.14 Gb ( 4 344 770,00 KBytes ) - DVD-5
Enabled regions: 1, 2, 3, 4, 5, 6, 7, 8

VTS_01 :
Play Length: 00:00:10
Video: NTSC 16:9 (720x480) VBR, Auto Letterboxed

VTS_02 :
Play Length: 01:34:13
Video: NTSC 16:9 (720x480) VBR, Auto Letterboxed
Audio:
English, AC3, 2/0 (L,R) ch, 192 kbps, Delay 0 mSec
English, AC3, 3/2 (L,C,R,SL,SR)+LFE ch, 448 kbps, Delay 0 mSec

VTS_03 :
Play Length: 00:00:30
Video: NTSC 4:3 (720x480) VBR
Audio:
English (Dolby AC3, 6 ch)

* Menus Information *

VIDEO_TS Menu
Video:
NTSC 4:3 (720x480) VBR
Auto Pan&Scan, Auto Letterboxed
English Language Unit :
Title Menu

VTS_01 Menu
Video:
NTSC 4:3 (720x480) VBR
Auto Pan&Scan, Auto Letterboxed
Language Unit :
Chapter (PTT) Menu

VTS_02 Menu
Video:
NTSC 16:9 (720x480) VBR
Auto Pan&Scan
Audio:
Not specified (Dolby AC3, 2 ch)
English Language Unit :
Root Menu

VTS_03 Menu
Video:
NTSC 4:3 (720x480) VBR
Auto Pan&Scan, Auto Letterboxed
English Language Unit :
Root Menu
Общее
Полное имя: D:\Torrents\Download\Motley Crue - Crue Fest\VIDEO_TS\VTS_02_1.VOB
Формат: MPEG-PS
Размер файла: 1024 Мбайт
Продолжительность: 23 м.
Общий поток: 6115 Кбит/сек

Видео
Идентификатор: 224 (0xE0)
Формат: MPEG Video
Версия формата: Version 2
Профиль формата: Main@Main
Параметр BVOP формата: Да
Параметр матрицы формата: По умолчанию
Продолжительность: 23 м.
Вид битрейта: Переменный
Битрейт: 5353 Кбит/сек
Номинальный битрейт: 9800 Кбит/сек
Ширина: 720 пикс.
Высота: 480 пикс.
Соотношение сторон: 16:9
Частота кадров: 23,976 кадр/сек
Стандарт вещания: NTSC
Цветовое пространство: YUV
Подвыборка цветности: 4:2:0
Битовая глубина: 8 бит
Тип развёртки: Прогрессивная
Порядок развёртки: 2:3 Pulldown
Метод сжатия: С потерями
Бит/(Пиксели*Кадры): 0.646
Размер потока: 896 Мбайт (88%)

Аудио #1
Идентификатор: 128 (0x80)
Формат: AC-3
Формат/Информация: Audio Coding 3
Расширение режима: CM (complete main)
Продолжительность: 23 м.
Вид битрейта: Постоянный
Битрейт: 192 Кбит/сек
Каналы: 2 канала
Расположение каналов: Front: L R
Частота: 48,0 КГц
Битовая глубина: 16 бит
Метод сжатия: С потерями
Размер потока: 32,1 Мбайт (3%)

Аудио #2
Идентификатор: 129 (0x81)
Формат: AC-3
Формат/Информация: Audio Coding 3
Расширение режима: CM (complete main)
Продолжительность: 23 м.
Вид битрейта: Постоянный
Битрейт: 448 Кбит/сек
Каналы: 6 каналов
Расположение каналов: Front: L C R, Side: L R, LFE
Частота: 48,0 КГц
Битовая глубина: 16 бит
Метод сжатия: С потерями
Размер потока: 75,0 Мбайт (7%)

Меню










[b]Поделиться:




реклама партнёра


Вернуться к началу
 Профиль  
 
   Похожие торренты   Автор   Торрент   Размер 
В этой теме нет новых непрочитанных сообщений. Motley Crue - Saints Of Los Angeles [2008, Glam, Heavy Metal, Hard Rock, MP3]

PriZraK

2 | 1

122.45 МБ

В этой теме нет новых непрочитанных сообщений. Motley Crue - Sex (Single) [16.07.2012, Hard Rock, MP3]

PriZraK

0 | 1

8.44 МБ

В этой теме нет новых непрочитанных сообщений. VA - Extreme Rock Fest [2014, Rock, Metal, Female Vocal, MP3]

PriZraK

2 | 2

205.45 МБ

В этой теме нет новых непрочитанных сообщений. ТонкаяКраснаяНить - Live At Rock Generation Fest [2010, Alternative, MP3]

PriZraK

0 | 1

24.4 МБ

В этой теме нет новых непрочитанных сообщений. VA - Стальные нервы (Glam Metal and Hair Rock Classics) [2013, Glam Metal, Hair Rock, Hard Rock, Rock, MP3]

PriZraK

0 | 1

589.04 МБ

В этой теме нет новых непрочитанных сообщений. Negative - War Of Love & God Likes Your Style (2Albums) [2003 - 2009, Glam Rock, Hard Rock, MP3]

PriZraK

0 | 2

263.35 МБ

В этой теме нет новых непрочитанных сообщений. VA - Glam Rock Anthology (3CD) [2012, Glam Rock, MP3]

PriZraK

0 | 1

363.81 МБ


Начать новую тему Ответить на тему  [ 1 сообщение ] 




Для Мосгорсуда, Роскомнадзора и рекламодателей:: mosgorsud-torrent[собачка]yandex.ru