Торрент файл
скачать торрент магнет ссылка Добавлен: 08 янв 2012, 11:09
Размер: 1.89 ГБ
Сидеров: 3
Личеров: 5
Автор

СообщениеДобавлено: 08 янв 2012, 11:09 

Не в сети
Зам. Админа
Аватара пользователя
Дата регистрации:
02 дек 2010, 12:39
Спасибо: 12460 / 214
Сообщения: 27968
Vacuum - Single


Формат: DVD5, DVD Video, MPEG2, MP2
Песня: Single
Жанр: Synthpop
Продолжительность: 00:30:53
Год выпуска: 1997-2004

Видео: 720х576 (4:3), 25 fps, MPEG-2, ~8172 kbps avg, 0.788 bit/pixel
Аудио: 48 kHz, MPEG Layer 2, 2 ch, 384.00 kbps avg

Доп. информация: Vacuum — название шведского коллектива, работающего в стиле synthpop. В настоящее время коллектив представляют Маттиас Линдблум и Андерс Вольбек. Они познакомились в 1996 году, тогда же группа записала свой первый альбом. Группа работает в собственной студии «Home», расположенной в центральной части Стокгольма, и часто гастролируют по всему миру. Как композиторы, Маттиас Линдблум и Андерс Вольбек написали хиты для многих известных групп и артистов, к примеру: Monrose, Тарья Турунен, Рэйчел Стивенс, Гару и других. В число их соавторов входят Wane Hector, Daniel Presley, Billy Mann, Gary Barlow, Уве Фаренкрог-Петерсен и Troy Verges среди других исполнителей, широко известных в европейской музыкальной сфере.

Треклист:
01. I Breathe (1997)
02. Pride In My Religion (199
03. Science Of The Sacred (1997)
04. Tonnes Of Attraction (199
05. Let The Mountain Come To Me (199
06. Icaros (1999)
07. Fools Like Me (2004)
08. They Do It (2004)
Общее
Формат: MPEG-PS
Общий поток: 8729 Кбит/сек

Видео
Идентификатор: 224 (0xE0)
Формат: MPEG Video
Версия формата: Version 2
Профиль формата: Main@Main
Параметр BVOP формата: Да
Параметр матрицы формата: По умолчанию
Параметры GOP формата: M=3, N=13
Вид битрейта: Переменный
Битрейт: 8172 Кбит/сек
Номинальный битрейт: 9008 Кбит/сек
Ширина: 720 пикс.
Высота: 576 пикс.
Соотношение сторон: 4:3
Частота кадров: 25,000 кадр/сек
Стандарт вещания: PAL
Цветовое пространство: YUV
Подвыборка цветности: 4:2:0
Битовая глубина: 8 бит
Тип развёртки: Прогрессивная
Метод сжатия: С потерями
Бит/(Пиксели*Кадры): 0.788
Размер потока: 958 Мбайт (94%)

Аудио
Идентификатор: 192 (0xC0)
Формат: MPEG Audio
Версия формата: Version 1
Профиль формата: Layer 2
Вид битрейта: Постоянный
Битрейт: 384 Кбит/сек
Канал(ы): 2 канала(ов)
Частота: 48,0 КГц
Метод сжатия: С потерями
Размер потока: 45,0 Мбайт (4%)













Поделиться:




реклама партнёра


Вернуться к началу
 Профиль  
 
   Похожие торренты   Автор   Торрент   Размер 
В этой теме нет новых непрочитанных сообщений. Вредитель / The Pest [комедия, 1997] DVD5, Mvo+Sub

salma3

10 | 3

3.93 ГБ

В этой теме нет новых непрочитанных сообщений. Джонатан Крик / Jonathan Creek [S01-05] [детектив, 1997-2004] DVDRip, Mvo

salma3

9 | 10

15.03 ГБ

В этой теме нет новых непрочитанных сообщений. Как убить женушку / Tout Doit Disparaitre [комедия, 1997] DVD5, Mvo

salma3

0 | 4

3.85 ГБ

В этой теме нет новых непрочитанных сообщений. Mores Reign - Saturation [Synthpop / Gothic / Darkwave, 2014] MP3, 320kbps

Dracon

4 | 2

88.74 МБ

В этой теме нет новых непрочитанных сообщений. Joachim Witt - Dom (2CD) [2012, Synthpop, Gothic Wave, Dark Folk, MP3]

PriZraK

0 | 3

151.38 МБ

В этой теме нет новых непрочитанных сообщений. AlterRed – The Time It Takes To Smile [2013, Darkwave, Electro, Dark Cabaret, Synthpop, MP3]

PriZraK

1 | 2

109.17 МБ

В этой теме нет новых непрочитанных сообщений. VA - Осенний марафон № 194 (Зарубежный Коктейль Танцевальных Новинок) [2015, Pop, Dance, Latino, Country, House, Electronic, Synthpop, HDTVRip 1080p]

Hestin

35 | 2

3.24 ГБ


Начать новую тему Ответить на тему  [ 1 сообщение ] 




Для Мосгорсуда, Роскомнадзора и рекламодателей:: mosgorsud-torrent[собачка]yandex.ru