Торрент файл
скачать торрент магнет ссылка Добавлен: 08 янв 2012, 11:09
Размер: 1.12 ГБ
Сидеров: 1
Личеров: 4
Автор

СообщениеДобавлено: 08 янв 2012, 11:09 

Не в сети
Зам. Админа
Аватара пользователя
Дата регистрации:
02 дек 2010, 12:39
Спасибо: 12623 / 214
Сообщения: 28012
Motorhead - Rock Am Ring - Germany

Формат: DVDRip, AVI, XviD, MP3
Песня: Rock Am Ring - Germany
Жанр: Hard Rock
Продолжительность: 01:02:17
Год выпуска: 2004
Видео: MPEG 4 VIDEO, 704*576, (1.222 PAL), 25.0 fps, 2347 kbps,0,231 bit/pixel
Аудио: 44,1 khz, MP 3, 2 ch, 224 kbps avg
Доп. информация: Концерт в Кёльне, Германия. 4 июня 2004 года.
    Состав

Lemmy Kilmister - vocals, bass
Phil Campbell - guitar
Mikkey Dee - drums
    Треклист

01. We Are Motorhead
02. No Class
03. Shoot You In The Back
04. Civil War
05. God Save The Queen
06. Metropolis
07. Doctor Rock
08. Ramones
09. Over The Top
10. Damage Case
11. Sacrifice
12. Going To Brazil
13. Killed By Death
14. Ace Of Spades
15. Overkil
Общее
Полное имя: D:\Video\Motorhead - Rock Am Ring Germany.avi
Формат: AVI
Формат/Информация: Audio Video Interleave
Профиль формата: OpenDML
Размер файла: 1,12 Гбайт
Продолжительность: 1 ч. 2 м.
Общий поток: 2586 Кбит/сек
Программа кодирования: Lavf51.12.1

Видео
Идентификатор: 0
Формат: xvid
Идентификатор кодека: xvid
Продолжительность: 1 ч. 2 м.
Битрейт: 2347 Кбит/сек
Ширина: 704 пикс.
Высота: 576 пикс.
Соотношение сторон: 1,222
Частота кадров: 25,000 кадр/сек
Стандарт вещания: PAL
Бит/(Пиксели*Кадры): 0.231
Размер потока: 1,02 Гбайт (91%)

Аудио
Идентификатор: 1
Формат: MPEG Audio
Версия формата: Version 1
Профиль формата: Layer 3
Режим: Joint stereo
Идентификатор кодека: 55
Идентификатор кодека/Подсказка: MP3
Продолжительность: 1 ч. 2 м.
Вид битрейта: Постоянный
Битрейт: 224 Кбит/сек
Каналы: 2 канала
Частота: 44,1 КГц
Метод сжатия: С потерями
Размер потока: 99,8 Мбайт (9%)
Выравнивание: Соединение по промежуткам
Продолжительность промежутка: 26мс. (0,65 видеокадр)







[b]Поделиться:




реклама партнёра


Вернуться к началу
 Профиль  
 
   Похожие торренты   Автор   Торрент   Размер 
В этой теме нет новых непрочитанных сообщений. Сборник - Русский Рок Золотой [2014, Rock, Classic Rock, Soft Rock, Hard Rock, MP3]

Nickolas3435

457 | 26

935.39 МБ

В этой теме нет новых непрочитанных сообщений. Сборник - The Original Rock Meets Classic [2 CD] [2014, Rock, Hard Rock, FLAC]

Nickolas3435

185 | 11

1.05 ГБ

В этой теме нет новых непрочитанных сообщений. Сборник клипов - Hard Rock and Metal от ALEXnROCK Диск 2 [51 шт.] [Rock, Metal, 2017] DVDRip

salma3

16 | 7

4.26 ГБ

В этой теме нет новых непрочитанных сообщений. Сборник клипов - Hard Rock and Metal: Part 4 [Rock, Metal, 2017] DVDRip

salma3

6 | 3

4.19 ГБ

В этой теме нет новых непрочитанных сообщений. Whitesnake - The Purple Album [Japanese Edition] [2015, Hard Rock, Classic Rock, MP3]

salma3

5 | 0

175.45 МБ

В этой теме нет новых непрочитанных сообщений. AC/DC - Rock Or Bust (Hard Rock. 2014) MP3

Aleksandr.ru

1804 | 19

96.56 МБ

В этой теме нет новых непрочитанных сообщений. Kid Rock - First Kiss [Deluxe Edition] (Rock, Country, Southern Rock. 2015) MP3 320 kbps

Aleksandr.ru

26 | 4

114.38 МБ


Начать новую тему Ответить на тему  [ 1 сообщение ] 




Для Мосгорсуда, Роскомнадзора и рекламодателей:: mosgorsud-torrent[собачка]yandex.ru