Торрент файл
скачать торрент магнет ссылка Добавлен: 08 янв 2012, 11:09
Размер: 1.12 ГБ
Сидеров: 1
Личеров: 4
Автор

СообщениеДобавлено: 08 янв 2012, 11:09 

Не в сети
Зам. Админа
Аватара пользователя
Дата регистрации:
02 дек 2010, 12:39
Спасибо: 12461 / 214
Сообщения: 27968
Motorhead - Rock Am Ring - Germany

Формат: DVDRip, AVI, XviD, MP3
Песня: Rock Am Ring - Germany
Жанр: Hard Rock
Продолжительность: 01:02:17
Год выпуска: 2004
Видео: MPEG 4 VIDEO, 704*576, (1.222 PAL), 25.0 fps, 2347 kbps,0,231 bit/pixel
Аудио: 44,1 khz, MP 3, 2 ch, 224 kbps avg
Доп. информация: Концерт в Кёльне, Германия. 4 июня 2004 года.
    Состав

Lemmy Kilmister - vocals, bass
Phil Campbell - guitar
Mikkey Dee - drums
    Треклист

01. We Are Motorhead
02. No Class
03. Shoot You In The Back
04. Civil War
05. God Save The Queen
06. Metropolis
07. Doctor Rock
08. Ramones
09. Over The Top
10. Damage Case
11. Sacrifice
12. Going To Brazil
13. Killed By Death
14. Ace Of Spades
15. Overkil
Общее
Полное имя: D:\Video\Motorhead - Rock Am Ring Germany.avi
Формат: AVI
Формат/Информация: Audio Video Interleave
Профиль формата: OpenDML
Размер файла: 1,12 Гбайт
Продолжительность: 1 ч. 2 м.
Общий поток: 2586 Кбит/сек
Программа кодирования: Lavf51.12.1

Видео
Идентификатор: 0
Формат: xvid
Идентификатор кодека: xvid
Продолжительность: 1 ч. 2 м.
Битрейт: 2347 Кбит/сек
Ширина: 704 пикс.
Высота: 576 пикс.
Соотношение сторон: 1,222
Частота кадров: 25,000 кадр/сек
Стандарт вещания: PAL
Бит/(Пиксели*Кадры): 0.231
Размер потока: 1,02 Гбайт (91%)

Аудио
Идентификатор: 1
Формат: MPEG Audio
Версия формата: Version 1
Профиль формата: Layer 3
Режим: Joint stereo
Идентификатор кодека: 55
Идентификатор кодека/Подсказка: MP3
Продолжительность: 1 ч. 2 м.
Вид битрейта: Постоянный
Битрейт: 224 Кбит/сек
Каналы: 2 канала
Частота: 44,1 КГц
Метод сжатия: С потерями
Размер потока: 99,8 Мбайт (9%)
Выравнивание: Соединение по промежуткам
Продолжительность промежутка: 26мс. (0,65 видеокадр)







[b]Поделиться:




реклама партнёра


Вернуться к началу
 Профиль  
 
   Похожие торренты   Автор   Торрент   Размер 
В этой теме нет новых непрочитанных сообщений. VA - 100 Hits: Band On The Run. Pop Rock Of The 60's & 70's [2004, Pop, Rock, Classic Rock, Hard Rock, Blues, Rock Ballads, MP3]

PriZraK

15 | 5

652.15 МБ

В этой теме нет новых непрочитанных сообщений. Motorhead - Aftershock [2013, Hard Rock, Heavy Metal, MP3]

PriZraK

0 | 1

108.45 МБ

В этой теме нет новых непрочитанных сообщений. VA - Rolling Stone Magazine's 500 Greatest Songs Of All Time [2004, Rock and Roll, R&B, Boogie, Psychedelia, Pop Rock, Hard Rock, MP3]

PriZraK

16 | 3

4.35 ГБ

В этой теме нет новых непрочитанных сообщений. Goliath - Hot Rock And Thunder [2004, Hard Rock, Progressive Rock, MP3]

PriZraK

0 | 1

106.36 МБ

В этой теме нет новых непрочитанных сообщений. ZZ Top - The Very Baddest (2СD) [2014, Blues Rock , Boogie Rock , Southern Rock , Hard Rock , Rock 'n' Roll , Classic Rock, MP3]

PriZraK

58 | 9

360.3 МБ

В этой теме нет новых непрочитанных сообщений. VA - Rock Romantic [2012, Hard Rock, Heavy Metal, Alternative Rock, Modern Rock, Blues Rock, MP3]

PriZraK

5 | 3

844.31 МБ

В этой теме нет новых непрочитанных сообщений. Thunder - The Thrill Of It All (2CD, Digitally Remastered) [2004, Hard Rock, Blues Rock, MP3]

PriZraK

0 | 2

214.76 МБ


Начать новую тему Ответить на тему  [ 1 сообщение ] 




Для Мосгорсуда, Роскомнадзора и рекламодателей:: mosgorsud-torrent[собачка]yandex.ru