Торрент файл
скачать торрент магнет ссылка Добавлен: 08 янв 2012, 11:07
Размер: 3.51 ГБ
Сидеров: 6
Личеров: 7
Автор

СообщениеДобавлено: 08 янв 2012, 11:07 

Не в сети
Зам. Админа
Аватара пользователя
Дата регистрации:
02 дек 2010, 12:39
Спасибо: 12461 / 214
Сообщения: 27968
Рада Рай - Мелодия жизни

Формат: DVD5, DVD Video, MPEG2, AC3
Песня: Мелодия жизни
Жанр: Shanson
Продолжительность: 01:29:50
Год выпуска: 2011

Видео: 720х576 (PAL 4:3), 25 fps, MPEG-2, ~5054 kbps avg, 0.487 bit/pixel
Аудио: 48 kHz, AC-3, 2 ch, 192.00 kbps avg

Доп. информация: Рада Рай (настоящее имя — Елена) — российская певица, исполнительница российского шансона. Получила известность, с песнями «Калина» и "Душа". Музыкальность, необыкновенный певческий тембр и красота делает Раду наиболее интересным и запоминающимся артистом жанра "Русская эстрада", и это не смотря на то, что самую большую поддержку в раскрутке артиста оказала Радиостанция "Шансон". Здесь представлено выступление на канале «ЛЯ МИНОР»
1.Калина
2.Вольный рай
3.Расскажи
4.Протяни ладонь
5.Последняя любовь
6.Бабье лето
7.Вишня
8.Я тобою уже не болею
9.Если бы я знала
10.Забыто
11.Ты не стой на моём пути
12.Прости, Мама
13.Душа
14.Помоги, Боже
15.Радуюсь
16.Ты лети, моя душа

Общее
Формат: MPEG-PS
Общий поток: 5353 Кбит/сек

Видео
Идентификатор: 224 (0xE0)
Формат: MPEG Video
Версия формата: Version 2
Профиль формата: Main@Main
Параметр BVOP формата: Да
Параметр матрицы формата: По умолчанию
Параметры GOP формата: M=3, N=13
Вид битрейта: Переменный
Битрейт: 5054 Кбит/сек
Номинальный битрейт: 9008 Кбит/сек
Ширина: 720 пикс.
Высота: 576 пикс.
Соотношение сторон: 4:3
Частота кадров: 25,000 кадр/сек
Стандарт вещания: PAL
Цветовое пространство: YUV
Подвыборка цветности: 4:2:0
Битовая глубина: 8 бит
Тип развёртки: Прогрессивная
Метод сжатия: С потерями
Бит/(Пиксели*Кадры): 0.487
Размер потока: 967 Мбайт (94%)

Аудио
Идентификатор: 128 (0x80)
Формат: AC-3
Формат/Информация: Audio Coding 3
Расширение режима: CM (complete main)
Вид битрейта: Постоянный
Битрейт: 192 Кбит/сек
Канал(ы): 2 канала(ов)
Расположение каналов: Front: L R
Частота: 48,0 КГц
Битовая глубина: 16 бит
Метод сжатия: С потерями
Размер потока: 36,7 Мбайт (4%)










Поделиться:




реклама партнёра


Вернуться к началу
 Профиль  
 
   Похожие торренты   Автор   Торрент   Размер 
В этой теме нет новых непрочитанных сообщений. Хоть раз в жизни / Begin again [драма, мелодрама, комедия, 2013] DVD5, Dub [Лицензия]

Dracon

54 | 4

4.06 ГБ

В этой теме нет новых непрочитанных сообщений. Мелодия из подвала / Melodie en Sous-Sol [Криминальная комедия, 1963] BDRemux, Mvo+Avo+Sub

salma3

4 | 7

27.06 ГБ

В этой теме нет новых непрочитанных сообщений. Мелодия на два голоса [01-02 из 02] (Сергей Мезенцев) [Мелодрама, 2015] HDTV 1080i

Dracon

6 | 4

10.56 ГБ

В этой теме нет новых непрочитанных сообщений. Мелодия на два голоса [01-02 из 02] (Сергей Мезенцев) [Мелодрама, 2015] HDTVRip 720p

Dracon

113 | 19

7.39 ГБ

В этой теме нет новых непрочитанных сообщений. Рождественская мелодия / A Christmas Melody [Комедия, музыка, 2015] WEB-DLRip, Mvo [iTunes]

salma3

0 | 0

1.46 ГБ

В этой теме нет новых непрочитанных сообщений. Рождественская мелодия / A Christmas Melody [Комедия, музыка, 2015] WEB-DLRip, Mvo [iTunes]

salma3

0 | 0

744.15 МБ

В этой теме нет новых непрочитанных сообщений. Побочные эффекты семейной жизни / Обратная сторона семейной жизни / Shaadi Ke Side Effects [мелодрама, комедия, 2014] HDRip, Mvo+Suib

salma3

27 | 5

1.39 ГБ


Начать новую тему Ответить на тему  [ 1 сообщение ] 




Для Мосгорсуда, Роскомнадзора и рекламодателей:: mosgorsud-torrent[собачка]yandex.ru