Торрент файл
скачать торрент магнет ссылка Добавлен: 08 янв 2012, 11:07
Размер: 3.17 ГБ
Сидеров: 3
Личеров: 8
Автор

СообщениеДобавлено: 08 янв 2012, 11:07 

Не в сети
Зам. Админа
Аватара пользователя
Дата регистрации:
02 дек 2010, 12:39
Спасибо: 12460 / 214
Сообщения: 27968
Наутилус Помпилиус - Live


Формат: DVD5, DVD Video, MPEG2, MP2
Песня: Live
Жанр: Rock
Продолжительность: 01:34:18
Год выпуска: 1993

Видео: 720х576 (PAL 4:3), 25 fps, MPEG-2, ~4457 kbps avg, 0.430 bit/pixel
Аудио: 48 kHz, MPEG Layer 2 , 2 ch, 256.00 kbps avg

Доп. информация: Описание: Самый большой (из сохранившихся) концерт гитарного периода. Почти вся Чужая земля исполнена,часть Наугада, ну и лучшие песни золотого периода в гитарных аранжировках. Концерт состоялся в ГКЗ "Россия" 29 мая 1993 года.
1. Отход на север
2. Чужая земля
3. Тихие игры
4. Эти реки
5. Чистый бес
6. Музыка на песке
7. Морской змей
8. Иван человеков
9. Бесы
10. Летучий фрегат (с Настей)
11. Прогулки по воде
12. На берегу безымянной реки
13. Джульетта
14. Летучая мышь
15. Новые легионы (Песня в защиту женщин)
16. Доктор твоего тела
17. Эта музыка будет вечной
18. Бриллиантовые дороги
19. Скованные одной цепью
20. Я хочу быть с тобой
21. Последнее письмо
22. Все, кто нес
23. Paint in black

Общее
Формат: MPEG-PS
Общий поток: 4808 Кбит/сек

Видео
Идентификатор: 224 (0xE0)
Формат: MPEG Video
Версия формата: Version 2
Профиль формата: Main@Main
Параметр BVOP формата: Да
Параметр матрицы формата: По умолчанию
Вид битрейта: Переменный
Битрейт: 4457 Кбит/сек
Номинальный битрейт: 9396 Кбит/сек
Ширина: 720 пикс.
Высота: 576 пикс.
Соотношение сторон: 4:3
Частота кадров: 25,000 кадр/сек
Стандарт вещания: PAL
Цветовое пространство: YUV
Подвыборка цветности: 4:2:0
Битовая глубина: 8 бит
Тип развёртки: Чересстрочная
Порядок развёртки: Верхнее поле первое
Метод сжатия: С потерями
Бит/(Пиксели*Кадры): 0.430
Размер потока: 949 Мбайт (93%)

Аудио
Идентификатор: 192 (0xC0)
Формат: MPEG Audio
Версия формата: Version 1
Профиль формата: Layer 2
Вид битрейта: Постоянный
Битрейт: 256 Кбит/сек
Канал(ы): 2 канала(ов)
Частота: 48,0 КГц
Метод сжатия: С потерями
Задержка видео: -80 мс.
Размер потока: 54,5 Мбайт (5%)










Поделиться:




реклама партнёра


Вернуться к началу
 Профиль  
 
   Похожие торренты   Автор   Торрент   Размер 
В этой теме нет новых непрочитанных сообщений. Fats Domino - Greatest Hits Live [1993, Rock'n'roll, MP3]

PriZraK

0 | 1

93.75 МБ

В этой теме нет новых непрочитанных сообщений. Charlies - Musiikkia Elokuvasta Julisteiden Liimaajat [1993, Blues Rock, Hard Rock, Psychedelic Rock, Prog Rock, MP3]

PriZraK

0 | 1

157.26 МБ

В этой теме нет новых непрочитанных сообщений. Сектор Газа - Концерт в Воткинске 15 октября 1993 года (2011, Remastered by Island) [1993, Punk Rock, MP3]

PriZraK

1 | 3

205 МБ

В этой теме нет новых непрочитанных сообщений. Lita Ford - Live & Deadly (Live) [2014, Hard Rock, MP3]

PriZraK

5 | 3

144.57 МБ

В этой теме нет новых непрочитанных сообщений. Eloy - Reincarnation On Stage (2CD, Live) [2014, Progressive Rock, Psychedelic Rock, Space Rock, MP3]

PriZraK

1 | 2

316.51 МБ

В этой теме нет новых непрочитанных сообщений. James Gang - Live in Concert [1971, Classic Rock, Hard Rock, Blues Rock, MP3]

PriZraK

0 | 1

104.69 МБ

В этой теме нет новых непрочитанных сообщений. Grateful Dead – Dave’s Picks Volume 7 (3CD, Live) [2013, Psychedelic Rock, Folk Rock, Blues Rock, MP3]

PriZraK

0 | 1

389.67 МБ


Начать новую тему Ответить на тему  [ 1 сообщение ] 




Для Мосгорсуда, Роскомнадзора и рекламодателей:: mosgorsud-torrent[собачка]yandex.ru