Торрент файл
скачать торрент магнет ссылка Добавлен: 08 янв 2012, 11:07
Размер: 3.06 ГБ
Сидеров: 10
Личеров: 5
Автор

СообщениеДобавлено: 08 янв 2012, 11:07 

Не в сети
Зам. Админа
Аватара пользователя
Дата регистрации:
02 дек 2010, 12:39
Спасибо: 12623 / 214
Сообщения: 28012
Группа МГК - LIVE

Формат: DVD5, DVD Video, MPEG2, AC3
Песня: LIVE
Жанр: Pop
Продолжительность: 00:51:41
Год выпуска: 1997-2009

Видео: 720х576 (PAL 4:3), 25 fps, MPEG-2, ~7408 kbps avg, 0.714 bit/pixel
Аудио: 48 kHz, AC-3 , 2 ch, 192.00 kbps avg

Доп. информация: Группа "МГК" была основана в январе 1992 года известным композитором Владимиром Павловичем Кызыловым (автором хитов для Александра Айвазова: «Лилии», «Ежик в тумане» и других), гитаристом Сергеем Горбатовым и звукорежиссером, шефом студии «Ника» – Владимиром Мальгиным. Из первых букв их фамилий и составлено название «МГК». P.S. далее Московская Группа Кызылова.
Начиная с 1997 года, группа работает в стиле поп-музыки и большинство песен исполняет солистка группы Елена Дубровская.


01 Дождь
02 Скажи ДА (live)
03. Открой альбом
04. Золотая луна
05. Свечи (live)
06. Позвони (live)
07. Еще раз про любовь
08. Ах какие...
09. Будь со мной (live)
10. Индийский океан (live)
11. Рождественская (live)
12. Падает снег

Общее
Формат: MPEG-PS
Общий поток: 7754 Кбит/сек

Видео
Идентификатор: 224 (0xE0)
Формат: MPEG Video
Версия формата: Version 2
Профиль формата: Main@Main
Параметр BVOP формата: Да
Параметр матрицы формата: По умолчанию
Параметры GOP формата: M=3, N=15
Вид битрейта: Переменный
Битрейт: 7408 Кбит/сек
Номинальный битрейт: 9008 Кбит/сек
Ширина: 720 пикс.
Высота: 576 пикс.
Соотношение сторон: 4:3
Частота кадров: 25,000 кадр/сек
Стандарт вещания: PAL
Цветовое пространство: YUV
Подвыборка цветности: 4:2:0
Битовая глубина: 8 бит
Тип развёртки: Прогрессивная
Метод сжатия: С потерями
Бит/(Пиксели*Кадры): 0.714
Размер потока: 978 Мбайт (96%)

Аудио
Идентификатор: 128 (0x80)
Формат: AC-3
Формат/Информация: Audio Coding 3
Расширение режима: CM (complete main)
Вид битрейта: Постоянный
Битрейт: 192 Кбит/сек
Канал(ы): 2 канала(ов)
Расположение каналов: Front: L R
Частота: 48,0 КГц
Битовая глубина: 16 бит
Метод сжатия: С потерями
Размер потока: 25,3 Мбайт (2%)









Поделиться:




реклама партнёра


Вернуться к началу
 Профиль  
 
   Похожие торренты   Автор   Торрент   Размер 
В этой теме нет новых непрочитанных сообщений. Футбол. Чемпионат Мира 2018. Отборочный турнир. Европа. Группа D. 7-й тур. Украина - Турция. Live [02.09] (2017) IPTVRip

salma3

52 | 16

2.6 ГБ

В этой теме нет новых непрочитанных сообщений. C. C. Catch - Live at Copernicus Center [Pop, disco, live, 2015] WEB-DLRip-AVC

salma3

32 | 1

843.74 МБ

В этой теме нет новых непрочитанных сообщений. [WildOnCam.com / CherryPimps.com] Megan Rain (Pigtails and Pussy LIVE / 25.07.2017) [2017 г., All Sex, Blowjob, Hardcore, Live Show, SiteRip, 480p]

salma3

13 | 4

1.3 ГБ

В этой теме нет новых непрочитанных сообщений. [WildOnCam.com / CherryPimps.com] Megan Rain (Pigtails and Pussy LIVE / 25.07.2017) [2017 г., All Sex, Blowjob, Hardcore, Live Show, HDRip, 720p]

salma3

6 | 2

2.16 ГБ

В этой теме нет новых непрочитанных сообщений. [WildOnCam.com / CherryPimps.com] Adria Rae (Smiling Babe Gets A Facial LIVE / 03.08.2017) [2017 г., All Sex, Blowjob, Facials, Hardcore, Live Show, SiteRip, 480p]

salma3

9 | 3

1.3 ГБ

В этой теме нет новых непрочитанных сообщений. [WildOnCam.com / CherryPimps.com] Kendra Lynn (Give Me That Facial LIVE / 26.07.2017) [2017 г., All Sex, Blowjob, Hardcore, Live Show, Facials, SiteRip, 480p]

salma3

2 | 1

1.3 ГБ

В этой теме нет новых непрочитанных сообщений. [WildOnCam.com / CherryPimps.com] Kat Dior, Missy Martinez (Up To No Good LIVE / 03.01.2017) [2017 г., Lesbian, Anal, Live Show, Toys, HDRip, 720p]

salma3

5 | 1

1.68 ГБ


Начать новую тему Ответить на тему  [ 1 сообщение ] 




Для Мосгорсуда, Роскомнадзора и рекламодателей:: mosgorsud-torrent[собачка]yandex.ru