Торрент файл
скачать торрент магнет ссылка Добавлен: 08 янв 2012, 11:07
Размер: 3.06 ГБ
Сидеров: 10
Личеров: 5
Автор

СообщениеДобавлено: 08 янв 2012, 11:07 

Не в сети
Зам. Админа
Аватара пользователя
Дата регистрации:
02 дек 2010, 12:39
Спасибо: 12461 / 214
Сообщения: 27968
Группа МГК - LIVE

Формат: DVD5, DVD Video, MPEG2, AC3
Песня: LIVE
Жанр: Pop
Продолжительность: 00:51:41
Год выпуска: 1997-2009

Видео: 720х576 (PAL 4:3), 25 fps, MPEG-2, ~7408 kbps avg, 0.714 bit/pixel
Аудио: 48 kHz, AC-3 , 2 ch, 192.00 kbps avg

Доп. информация: Группа "МГК" была основана в январе 1992 года известным композитором Владимиром Павловичем Кызыловым (автором хитов для Александра Айвазова: «Лилии», «Ежик в тумане» и других), гитаристом Сергеем Горбатовым и звукорежиссером, шефом студии «Ника» – Владимиром Мальгиным. Из первых букв их фамилий и составлено название «МГК». P.S. далее Московская Группа Кызылова.
Начиная с 1997 года, группа работает в стиле поп-музыки и большинство песен исполняет солистка группы Елена Дубровская.


01 Дождь
02 Скажи ДА (live)
03. Открой альбом
04. Золотая луна
05. Свечи (live)
06. Позвони (live)
07. Еще раз про любовь
08. Ах какие...
09. Будь со мной (live)
10. Индийский океан (live)
11. Рождественская (live)
12. Падает снег

Общее
Формат: MPEG-PS
Общий поток: 7754 Кбит/сек

Видео
Идентификатор: 224 (0xE0)
Формат: MPEG Video
Версия формата: Version 2
Профиль формата: Main@Main
Параметр BVOP формата: Да
Параметр матрицы формата: По умолчанию
Параметры GOP формата: M=3, N=15
Вид битрейта: Переменный
Битрейт: 7408 Кбит/сек
Номинальный битрейт: 9008 Кбит/сек
Ширина: 720 пикс.
Высота: 576 пикс.
Соотношение сторон: 4:3
Частота кадров: 25,000 кадр/сек
Стандарт вещания: PAL
Цветовое пространство: YUV
Подвыборка цветности: 4:2:0
Битовая глубина: 8 бит
Тип развёртки: Прогрессивная
Метод сжатия: С потерями
Бит/(Пиксели*Кадры): 0.714
Размер потока: 978 Мбайт (96%)

Аудио
Идентификатор: 128 (0x80)
Формат: AC-3
Формат/Информация: Audio Coding 3
Расширение режима: CM (complete main)
Вид битрейта: Постоянный
Битрейт: 192 Кбит/сек
Канал(ы): 2 канала(ов)
Расположение каналов: Front: L R
Частота: 48,0 КГц
Битовая глубина: 16 бит
Метод сжатия: С потерями
Размер потока: 25,3 Мбайт (2%)









Поделиться:




реклама партнёра


Вернуться к началу
 Профиль  
 
   Похожие торренты   Автор   Торрент   Размер 
В этой теме нет новых непрочитанных сообщений. G3 - Live in Concert (Eric Johnson, Joe Satriani, Steve Vai) [1997, Instrumental rock, MP3]

PriZraK

0 | 2

176.18 МБ

В этой теме нет новых непрочитанных сообщений. Вредитель / The Pest [комедия, 1997] DVD5, Mvo+Sub

salma3

10 | 3

3.93 ГБ

В этой теме нет новых непрочитанных сообщений. Как убить женушку / Tout Doit Disparaitre [комедия, 1997] DVD5, Mvo

salma3

0 | 4

3.85 ГБ

В этой теме нет новых непрочитанных сообщений. Sabaton - World War Live-Battle of the Baltic Sea (Live) [2011, Power Metal, MP3]

PriZraK

0 | 1

293.19 МБ

В этой теме нет новых непрочитанных сообщений. Lita Ford - Live & Deadly (Live) [2014, Hard Rock, MP3]

PriZraK

5 | 3

144.57 МБ

В этой теме нет новых непрочитанных сообщений. Rhapsody Of Fire - Live From Chaos To Eternity (Live, 2CD) [2013, Symphonic Power Metal, MP3]

PriZraK

0 | 1

251.92 МБ

В этой теме нет новых непрочитанных сообщений. Santana - Corazon: Live from Mexico - Live It To Believe It [LatinRock, BluesRock, 2014] BDRip 720p

Dracon

26 | 4

5.46 ГБ


Начать новую тему Ответить на тему  [ 1 сообщение ] 




Для Мосгорсуда, Роскомнадзора и рекламодателей:: mosgorsud-torrent[собачка]yandex.ru