Торрент файл
скачать торрент магнет ссылка Добавлен: 08 янв 2012, 11:06
Размер: 3.65 ГБ
Сидеров: 2
Личеров: 9
Автор

СообщениеДобавлено: 08 янв 2012, 11:06 

Не в сети
Зам. Админа
Аватара пользователя
Дата регистрации:
02 дек 2010, 12:39
Спасибо: 12458 / 214
Сообщения: 27968
Dio - Sacred Heart

Формат: DVD5, DVD Video, MPEG2, AC3
Песня: Sacred Heart
Жанр: Hard Rock
Продолжительность: 01:16:24
Год выпуска: 1986
Видео: MPEG 2 VIDEO, 720*480, (NTSC 4:3), 29.97 fps, ~6000 kbps avg ,0,579 bit/pixel
Аудио: 48,0 khz, AC-3, 2 ch, 192 kbps avg
Доп. информация: Концерт в рамках Dio's "Sacred Heart" tour - 1986. В качестве бонуса интервью Ronnie James Dio and Craig Goldy.
    Состав

Ronnie James Dio - vocals
Craig Goldy - guitars
Jimmy Bain - bass
Claude Schnell - key
Vinny Appice - drums
    Треклист

01.Drago Ignis
02.King Of Rock And Roll
03.Time To Burn
04.The Last In Line/Holy Diver
05.Heaven And Hell
06.Sacred Heart
07.Rock`N`Roll Children
08.Long Live Rock`N`Roll
09.Man On The Silver Mountain
10.Rock`N`Roll Children(Reprise)
11.Rainbow In The Dark
12.Hungry For Heaven
Title: Dio - Sacred Heart
Size: 3.65 Gb ( 3 826 992,00 KBytes ) - DVD-5
Enabled regions: 1, 2, 3, 4, 5, 6

VTS_01 :
Play Length: 00:00:00
Video: NTSC 4:3 (720x480) VBR

VTS_02 :
Play Length: 00:57:46
Video: NTSC 4:3 (720x480) VBR
Audio:
English, AC3, 2/0 (L,R) ch, 192 kbps, Delay 0 mSec

VTS_03 :
Play Length: 00:18:44
Video: NTSC 4:3 (720x480) VBR
Audio:
English (Dolby AC3, 2 ch)

* Menus Information *

VIDEO_TS Menu
Video:
NTSC 4:3 (720x480) VBR
English Language Unit :
Title Menu

VTS_01 Menu
Video:
NTSC 4:3 (720x480) VBR
Audio:
Not specified (Dolby AC3, 2 ch)
English Language Unit :
Root Menu

VTS_02 Menu
Video:
NTSC 4:3 (720x480) VBR
English Language Unit :
Root Menu

VTS_03 Menu
Video:
NTSC 4:3 (720x480) VBR
English Language Unit :
Root Menu
Общее
Полное имя: D:\Torrents\Download\Dio - Sacred Heart\VIDEO_TS\VTS_02_1.VOB
Формат: MPEG-PS
Размер файла: 1024 Мбайт
Продолжительность: 22 м.
Общий поток: 6325 Кбит/сек

Видео
Идентификатор: 224 (0xE0)
Формат: MPEG Video
Версия формата: Version 2
Профиль формата: Main@Main
Параметр BVOP формата: Да
Параметр матрицы формата: По умолчанию
Продолжительность: 22 м.
Вид битрейта: Постоянный
Битрейт: 6000 Кбит/сек
Ширина: 720 пикс.
Высота: 480 пикс.
Соотношение сторон: 4:3
Частота кадров: 29,970 кадр/сек
Стандарт вещания: NTSC
Цветовое пространство: YUV
Подвыборка цветности: 4:2:0
Битовая глубина: 8 бит
Тип развёртки: Чересстрочная
Порядок развёртки: Верхнее поле первое
Метод сжатия: С потерями
Бит/(Пиксели*Кадры): 0.579
Размер потока: 972 Мбайт (95%)

Аудио
Идентификатор: 128 (0x80)
Формат: AC-3
Формат/Информация: Audio Coding 3
Расширение режима: CM (complete main)
Продолжительность: 22 м.
Вид битрейта: Постоянный
Битрейт: 192 Кбит/сек
Каналы: 2 канала
Расположение каналов: Front: L R
Частота: 48,0 КГц
Битовая глубина: 16 бит
Метод сжатия: С потерями
Задержка видео: -66 мс.
Размер потока: 31,1 Мбайт (3%)

Меню











[b]Поделиться:




реклама партнёра


Вернуться к началу
 Профиль  
 
   Похожие торренты   Автор   Торрент   Размер 
В этой теме нет новых непрочитанных сообщений. The Sacred Mushroom - The Sacred Mushroom [1969, Blues, Hard Rock, MP3]

PriZraK

2 | 4

81.44 МБ

В этой теме нет новых непрочитанных сообщений. Sacred Heart - The Vision [2012, Power Metal, MP3]

PriZraK

0 | 5

136.82 МБ

В этой теме нет новых непрочитанных сообщений. Hard Riot - The Blackened Heart [2014, Hard Rock, MP3]

PriZraK

0 | 1

92.69 МБ

В этой теме нет новых непрочитанных сообщений. DIO - Sacred Heart (1985) (Deluxe Expanded Edition) [2012, Heavy Metal, MP3]

PriZraK

0 | 5

221.13 МБ

В этой теме нет новых непрочитанных сообщений. Fierce Heart - Fierce Heart [1985, Hard Rock, MP3]

PriZraK

0 | 1

55.64 МБ

В этой теме нет новых непрочитанных сообщений. Heart - Fanatic Live From Caesars Colosseum [2014, Classic Rock,Hard Rock, MP3]

PriZraK

0 | 1

155.88 МБ

В этой теме нет новых непрочитанных сообщений. Heart - Fanatic [2012, Classic Rock, Hard Rock, MP3]

PriZraK

0 | 1

92.16 МБ


Начать новую тему Ответить на тему  [ 1 сообщение ] 




Для Мосгорсуда, Роскомнадзора и рекламодателей:: mosgorsud-torrent[собачка]yandex.ru