Торрент файл
скачать торрент магнет ссылка Добавлен: 08 янв 2012, 11:06
Размер: 3.18 ГБ
Сидеров: 7
Личеров: 7
Автор

СообщениеДобавлено: 08 янв 2012, 11:05 

Не в сети
Зам. Админа
Аватара пользователя
Дата регистрации:
02 дек 2010, 12:39
Спасибо: 12623 / 214
Сообщения: 28012
ViRUS! (Вирус) - Видеография

Формат: DVD5, DVD Video, MPEG2, AC3
Песня: Видеография
Жанр: Eurodance
Продолжительность: 00:56:46
Год выпуска: 1997-2003

Видео: 720х576 (PAL 4:3), 25 fps, MPEG-2, ~8361 kbps avg, 0.806 bit/pixel
Аудио: 48 kHz, AC-3 , 6 ch (Front: L C R, Side: L R, LFE), 448.00 kbps avg

Доп. информация: ViRUS! (также известна как «Вирус») — Российская группа, получившая известность в 1990-2000 годах. Группа появилась в 1997 году в Зеленограде. Поначалу носила название «Акварель», затем переименовалась в «Вот так!». Благодаря общему знакомому их демо-кассета попала к московским продюсерам Игорю Силиверстову и Леониду Величковскому, которые после её прослушивания встретились с участниками группы и предложили им сотрудничество. Название группы было изменено на «Вирус». Дебютная песня «Ты меня не ищи» появилась в эфире радиостанций в сентябре 1999 года и заняла высокие позиции во многих хит-парадах. Другими известными хитами стали песни «Ручки», «Всё пройдёт», «Попрошу тебя», «Счастье», «Полёт» и др. Группа выступала во многих городах России, а также за рубежом (Украина, Германия, США, Канада, Израиль).
Состав:
• Ольга Козина (Лаки) — вокал, текст, музыка
• Юрий Ступник (DJ Доктор) — клавишные, аранжировка
• Андрей Гудас (Чип) — клавишные, аранжировка


01 Полёт
02 Ручки
03 Попрошу тебя
04 Ты меня не ищи
05 Не верь
06 Папа
07 Счастье
08 Весна
09 Опять идет дождь
10 Всё пройдёт
11 Лето (live)
12 Ручки (live)
13 Мегамикс
14 Мелодия ночи (live)
15 На встречу лету (live)

Общее
Формат: MPEG-PS
Общий поток: 8988 Кбит/сек

Видео
Идентификатор: 224 (0xE0)
Формат: MPEG Video
Версия формата: Version 2
Профиль формата: Main@Main
Параметр BVOP формата: Да
Параметр матрицы формата: По умолчанию
Параметры GOP формата: M=3, N=13
Вид битрейта: Переменный
Битрейт: 8361 Кбит/сек
Номинальный битрейт: 9008 Кбит/сек
Ширина: 720 пикс.
Высота: 576 пикс.
Соотношение сторон: 4:3
Частота кадров: 25,000 кадр/сек
Стандарт вещания: PAL
Цветовое пространство: YUV
Подвыборка цветности: 4:2:0
Битовая глубина: 8 бит
Тип развёртки: Прогрессивная
Метод сжатия: С потерями
Бит/(Пиксели*Кадры): 0.806
Размер потока: 952 Мбайт (93%)

Аудио
Идентификатор: 128 (0x80)
Формат: AC-3
Формат/Информация: Audio Coding 3
Расширение режима: CM (complete main)
Вид битрейта: Постоянный
Битрейт: 448 Кбит/сек
Канал(ы): 6 канала(ов)
Расположение каналов: Front: L C R, Side: L R, LFE
Частота: 48,0 КГц
Битовая глубина: 16 бит
Метод сжатия: С потерями
Размер потока: 51,0 Мбайт (5%)












Поделиться:




реклама партнёра


Вернуться к началу
 Профиль  
 
   Похожие торренты   Автор   Торрент   Размер 
В этой теме нет новых непрочитанных сообщений. Вирус / Virus [Боевик, 1996] DVDRip, Avo

salma3

26 | 4

1.36 ГБ

В этой теме нет новых непрочитанных сообщений. Вирус / Virus [ужасы, фантастика, боевик, 1999] BDRip-AVC, Dub

salma3

69 | 15

745.74 МБ

В этой теме нет новых непрочитанных сообщений. Вирус / Virus [фантастика, боевик, триллер, 1999] BDRip, Mvo

salma3

24 | 2

1.46 ГБ

В этой теме нет новых непрочитанных сообщений. Остров смерти / The Paradise Virus [триллер, драма, семейный, 2003] DVDRip, Mvo

salma3

17 | 5

690.3 МБ

В этой теме нет новых непрочитанных сообщений. Вирус - Ты Меня Не Ищи [1999, Поп, FLAC]

Nickolas3435

34 | 6

460.21 МБ

В этой теме нет новых непрочитанных сообщений. Вирус / Viral (2016) WEB-DLRip от MegaPeer | iTunes

marya111

225 | 32

745.87 МБ

В этой теме нет новых непрочитанных сообщений. Virus Z [Arcade, Action (Top-Down, Shooter), 3D, 2017] [RePack]

Sykre

3 | 1

207.99 МБ


Начать новую тему Ответить на тему  [ 1 сообщение ] 




Для Мосгорсуда, Роскомнадзора и рекламодателей:: mosgorsud-torrent[собачка]yandex.ru