Торрент файл
скачать торрент магнет ссылка Добавлен: 08 янв 2012, 11:05
Размер: 15.43 ГБ
Сидеров: 5
Личеров: 16
Автор

СообщениеДобавлено: 08 янв 2012, 11:05 

Не в сети
Зам. Админа
Аватара пользователя
Дата регистрации:
02 дек 2010, 12:39
Спасибо: 12458 / 214
Сообщения: 27968
Doro - Fur Immer

Формат: DVD9, DVD Video, MPEG2, AC3, DTS
Песня: Fur Immer
Жанр: Heavy Metal
Продолжительность: 02:30:00 + 03:00:00
Год выпуска: 2003

Disc 1

Видео: MPEG 2 VIDEO, 720*576( PAL 2.35:1), 25.00 fps,~ 5300 kbps av g, 0.511 bit/pixel
Аудио #1: 48,0 khz, AC 3, 6 ch, 448 kbps avg
Аудио #2: 48.0 khz, AC 3, 2 ch, 192 kbps avg
Аудио #3: 48.0 khz, DTS, 6 ch, 1510 kbps avg

Disc 2

Видео: MPEG 2 Video, 720*576 (PAL 4:3), 25.0 fps, ~ 4887 kbps avg, 0,471 bit/pixel
Аудио: 48.0 khz, AC 3, 2 ch, 192 kbps avg

Доп. информация: Disc 1: The Cave Concert - Balve, Germany. Видеоклипы 1986 - 2002 годов.

Disc 2: Документальный фильм о творчестве певицы, съёмки концертного тура в Австралии - 2003 год, фрагменты выступления с симфоническим оркестром в Дюссельдорфе и Бохуме, Фотосессия с Regina Halmich, дискография.


Концерт

01. Hellbound
02. Always Live To Win
03. True As Steel
04. I Rule The Ruins
05. Burning The Witches
06. Save My Soul
07. Hellraiser
08. Love Me In Black
09. Fur Immer
10. Fall For Me Again
11. East Meets West
12. Drumsolo
13. Burn It Up
14. Fight
15. All We Are
16. Rock Before We Bleed
17. Earthshaker Rock
18. Undying
19. Constant Danger
20. Chained
21. Ich will Alles
22. Metal Tango

Видеоклипы

01. Fight For Rock
02. All We Are
03. Für Immer
04. Unholy Love
05. Bad Blood
06. Ceremony
07. Love Me In Black
08. White Wedding
09. Always Live To Win
10. Fight
11. Chained
Title: Disc 1
Size: 7.90 Gb ( 8 287 082,00 KBytes ) - DVD-9
Enabled regions: 1, 2, 3, 4, 5, 6, 7, 8

VTS_01 :
Play Length: 00:00:30
Video: PAL 4:3 (720x576) VBR
Audio:
Not specified (Dolby AC3, 2 ch)

VTS_02 :
Play Length: 00:07:41
Video: PAL 16:9 (720x576) VBR, Auto Letterboxed

VTS_03 :
Play Length: 01:40:05+00:00:00
Video: PAL 16:9 (720x576) VBR, Auto Letterboxed
Audio:
English, AC3, 3/2 (L,C,R,SL,SR)+LFE ch, 448 kbps, Delay 40 mSec
English, AC3, 2/0 (L,R) ch, 192 kbps, Delay 0 mSec
English, DTS, 3/2 (L,C,R,SL,SR), 1536 kbps, Delay 40 mSec

Subtitles:
English
English

VTS_04 :
Play Length: 00:02:55
Video: PAL 16:9 (720x576) VBR, Auto Letterboxed
Audio:
Deutsch (Dolby AC3, 2 ch)

VTS_05 :
Play Length: 00:03:28+00:03:58+00:04:05+00:04:02+00:03:51+00:03:43+00:04:00+00:04:35+00:03:57+00:05:29+00:04:17
Video: PAL 4:3 (720x576) VBR
Audio:
English (Dolby AC3, 2 ch)

* Menus Information *

VIDEO_TS Menu
Video:
PAL 16:9 (720x576) VBR
Auto Letterboxed
Audio:
Not specified (Dolby AC3, 5 ch)
English Language Unit :
Title Menu

VTS_01 Menu
Video:
NTSC 4:3 (720x480) VBR
Auto Pan&Scan, Auto Letterboxed
Language Unit :
Chapter (PTT) Menu

VTS_02 Menu
Video:
NTSC 4:3 (720x480) VBR
Auto Pan&Scan, Auto Letterboxed
Language Unit :
Chapter (PTT) Menu

VTS_03 Menu
Video:
PAL 16:9 (720x576) VBR
Auto Letterboxed
Audio:
Not specified (Dolby AC3, 5 ch)
English Language Unit :
Root Menu
Subpicture Menu
Audio Menu

VTS_04 Menu
Video:
NTSC 4:3 (720x480) VBR
Auto Pan&Scan, Auto Letterboxed
Language Unit :
Chapter (PTT) Menu

VTS_05 Menu
Video:
PAL 16:9 (720x576) VBR
Auto Letterboxed
Audio:
Not specified (Dolby AC3, 4 ch)
English Language Unit :
Root Menu
Общее
Полное имя: D:\Video\Doro - Fur Immer\Disc 1\VIDEO_TS\VTS_03_1.VOB
Формат: MPEG-PS
Размер файла: 1024 Мбайт
Продолжительность: 18 м.
Общий поток: 7602 Кбит/сек

Видео
Идентификатор: 224 (0xE0)
Формат: MPEG Video
Версия формата: Version 2
Профиль формата: Main@Main
Параметр BVOP формата: Да
Параметр матрицы формата: По умолчанию
Параметры GOP формата: M=3, N=13
Продолжительность: 18 м.
Вид битрейта: Постоянный
Битрейт: 5300 Кбит/сек
Ширина: 720 пикс.
Высота: 576 пикс.
Соотношение сторон: 2,35:1
Частота кадров: 25,000 кадр/сек
Стандарт вещания: PAL
Цветовое пространство: YUV
Подвыборка цветности: 4:2:0
Битовая глубина: 8 бит
Тип развёртки: Чересстрочная
Порядок развёртки: Верхнее поле первое
Метод сжатия: С потерями
Бит/(Пиксели*Кадры): 0.511
Размер потока: 714 Мбайт (70%)

Аудио #1
Идентификатор: 128 (0x80)
Формат: AC-3
Формат/Информация: Audio Coding 3
Расширение режима: CM (complete main)
Продолжительность: 18 м.
Вид битрейта: Постоянный
Битрейт: 448 Кбит/сек
Каналы: 6 каналов
Расположение каналов: Front: L C R, Side: L R, LFE
Частота: 48,0 КГц
Битовая глубина: 16 бит
Метод сжатия: С потерями
Задержка видео: 40 мс.
Размер потока: 60,3 Мбайт (6%)

Аудио #2
Идентификатор: 129 (0x81)
Формат: AC-3
Формат/Информация: Audio Coding 3
Расширение режима: CM (complete main)
Продолжительность: 18 м.
Вид битрейта: Постоянный
Битрейт: 192 Кбит/сек
Каналы: 2 канала
Расположение каналов: Front: L R
Частота: 48,0 КГц
Битовая глубина: 16 бит
Метод сжатия: С потерями
Размер потока: 25,8 Мбайт (3%)

Аудио #3
Идентификатор: 138 (0x8A)
Формат: DTS
Формат/Информация: Digital Theater Systems
Продолжительность: 18 м.
Вид битрейта: Постоянный
Битрейт: 1510 Кбит/сек
Каналы: 6 каналов
Расположение каналов: Front: L C R, Side: L R, LFE
Частота: 48,0 КГц
Битовая глубина: 16 бит
Метод сжатия: С потерями
Задержка видео: 40 мс.
Размер потока: 203 Мбайт (20%)

Меню
















01. Exclusive Doro Documentary

02. Doro DownUnder Australia 2003
03. True Fans - Rene's Room
04. Access All Alreas - Part 1: Live Performance Video Bootleg Of At Least One Song From 16 Different Shows Spanning 1985-2002
05. Doro Meets Symphony Three Tracks From The Now-legendary Dusseldorf Symphony Orchestra Concert, As Well As Two Tracks From Her Orchestral Performance In Bochum
06. Foto Session With Regina Halmich
07. Access All Areas - Part 2: Eight Video Bootleg Tracks Filmed During Radio Performances, In Concert And In The Studio
08. Exclusive Interviews
09. Discography
Title: Disc 2
Size: 7.53 Gb ( 7 895 148,00 KBytes ) - DVD-9
Enabled regions: 1, 2, 3, 4, 5, 6, 7, 8

VTS_01 :
Play Length: 00:00:10
Video: PAL 4:3 (720x576) VBR
Audio:
Not specified (Dolby AC3, 2 ch)

VTS_02 :
Play Length: 00:00:20
Video: PAL 4:3 (720x576) VBR
Audio:
Deutsch (Dolby AC3, 2 ch)

VTS_03 :
Play Length: 00:20:42
Video: PAL 4:3 (720x576) VBR
Audio:
Deutsch (Dolby AC3, 2 ch)

VTS_04 :
Play Length: 00:15:52
Video: PAL 4:3 (720x576) VBR
Audio:
Deutsch (Dolby AC3, 2 ch)
Subtitles:
English
Deutsch
Francais
Portugues
Espanol
Italiano
Svenska

VTS_05 :
Play Length: 00:06:09
Video: PAL 4:3 (720x576) VBR
Audio:
Deutsch (Dolby AC3, 2 ch)

VTS_06 :
Play Length: 00:51:34
Video: PAL 4:3 (720x576) VBR
Audio:
Deutsch, AC3, 2/0 (L,R) ch, 192 kbps, Delay 0 mSec

VTS_07 :
Play Length: 00:31:58
Video: PAL 4:3 (720x576) VBR
Audio:
Deutsch (Dolby AC3, 2 ch)
Subtitles:
English
Deutsch
Francais
Portugues
Espanol
Italiano
Svenska

VTS_08 :
Play Length: 00:13:45
Video: PAL 4:3 (720x576) VBR
Audio:
Deutsch (Dolby AC3, 2 ch)
Subtitles:
English
Deutsch
Francais
Portugues
Espanol
Italiano
Svenska

VTS_09 :
Play Length: 00:38:33
Video: PAL 4:3 (720x576) VBR
Audio:
Deutsch (Dolby AC3, 2 ch)

VTS_10 :
Play Length: 00:04:00
Video: PAL 4:3 (720x576) VBR
Audio:
Deutsch (Dolby AC3, 2 ch)
Subtitles:
Deutsch
Общее
Полное имя: D:\Video\Doro - Fur Immer\Disc 2\VIDEO_TS\VTS_03_1.VOB
Формат: MPEG-PS
Размер файла: 767 Мбайт
Продолжительность: 20 м.
Общий поток: 5182 Кбит/сек

Видео
Идентификатор: 224 (0xE0)
Формат: MPEG Video
Версия формата: Version 2
Профиль формата: Main@Main
Параметр BVOP формата: Да
Параметр матрицы формата: По умолчанию
Параметры GOP формата: M=3, N=12
Продолжительность: 20 м.
Вид битрейта: Переменный
Битрейт: 4887 Кбит/сек
Номинальный битрейт: 7000 Кбит/сек
Ширина: 720 пикс.
Высота: 576 пикс.
Соотношение сторон: 4:3
Частота кадров: 25,000 кадр/сек
Стандарт вещания: PAL
Цветовое пространство: YUV
Подвыборка цветности: 4:2:0
Битовая глубина: 8 бит
Тип развёртки: Чересстрочная
Порядок развёртки: Верхнее поле первое
Метод сжатия: С потерями
Бит/(Пиксели*Кадры): 0.471
Размер потока: 723 Мбайт (94%)

Аудио
Идентификатор: 128 (0x80)
Формат: AC-3
Формат/Информация: Audio Coding 3
Расширение режима: CM (complete main)
Продолжительность: 20 м.
Вид битрейта: Постоянный
Битрейт: 192 Кбит/сек
Каналы: 2 канала
Расположение каналов: Front: L R
Частота: 48,0 КГц
Битовая глубина: 16 бит
Метод сжатия: С потерями
Задержка видео: -80 мс.
Размер потока: 28,4 Мбайт (4%)

Меню















[b]Поделиться:




реклама партнёра


Вернуться к началу
 Профиль  
 
   Похожие торренты   Автор   Торрент   Размер 
В этой теме нет новых непрочитанных сообщений. Doro - Raise Your Fist In The Air (EP) [08.2012, Heavy Metal, MP3]

PriZraK

0 | 2

36.27 МБ

В этой теме нет новых непрочитанных сообщений. Doro - Powerful Passionate Favorites [2014, Heavy Metal, MP3]

PriZraK

23 | 4

101.95 МБ

В этой теме нет новых непрочитанных сообщений. Doro - Raise Your Fist (Limited Edition) [2012, Heavy Metal, MP3]

PriZraK

3 | 2

137.6 МБ

В этой теме нет новых непрочитанных сообщений. VA - Evil Ultimate Metal Covers (75 CD) [2003-2005, Heavy Metal, Power Metal, Alternative Rock, Metalcore, Deathcore, Nu Metal, Industrial, Post-Grunge, Progressive Metal, MP3]

PriZraK

0 | 6

7.76 ГБ

В этой теме нет новых непрочитанных сообщений. Manowar - The Triple Album Collection [3CD Boxed Set] [2012, Heavy Metal , Power Metal , Symphonic Metal , Classic Heavy Metal , True Heavy Metal, MP3]

PriZraK

11 | 3

437.26 МБ

В этой теме нет новых непрочитанных сообщений. Immer - Separation [2013,Death Metal,Death'n'Roll,MP3]

PriZraK

0 | 1

122.59 МБ

В этой теме нет новых непрочитанных сообщений. The Light - Giac Mo Hoang Tan [2003, Thrash Metal, Heavy Metal, MP3]

PriZraK

0 | 1

107.84 МБ


Начать новую тему Ответить на тему  [ 1 сообщение ] 




Для Мосгорсуда, Роскомнадзора и рекламодателей:: mosgorsud-torrent[собачка]yandex.ru