Торрент файл
скачать торрент магнет ссылка Добавлен: 08 янв 2012, 11:03
Размер: 3.59 ГБ
Сидеров: 15
Личеров: 6
Автор

СообщениеДобавлено: 08 янв 2012, 11:03 

Не в сети
Зам. Админа
Аватара пользователя
Дата регистрации:
02 дек 2010, 12:39
Спасибо: 12623 / 214
Сообщения: 28012
Пропаганда - Знаешь

Формат: DVD5, DVD Video, MPEG2, AC3
Песня: Знаешь
Жанр: Рор
Продолжительность: 01:34:26
Год выпуска: 2001-2011

Видео: 720х576 (PAL 4:3), 25 fps, MPEG-2, ~5015 kbps avg, 0.484 bit/pixel
Аудио: 48 kHz, AC-3 , 6 ch (Front: L C R, Side: L R, LFE), 448.00 kbps avg

Доп. информация: Первым хитом группы стала песня «Мелом», которая появилась в эфире радиостанции «Европа Плюс» 1 сентября 2001 года. С того времени начинается карьера группы в шоу-бизнесе.За время своего существования «Пропаганда» выпустила 7 полноценных альбомов. Завоевывала первые места ведущих чартов страны и не только. Гастролировала по миру, исполняя свои песни живым вокалом. Некоторые известные песни группы: «Мелом», «Никто», «Кто-то играет в любовь», «5 минут на любовь», «Яй-я», «СуперДетка», «Одни дома» и другие.В 2004 году группа получила премию «Золотой граммофон» за песню «Яй-я»Группа «Пропаганда» сегодня — это Настя Шевченко и Маша Букатарь.
01 Super Dетка
02Яй-я …
03 Мелом
04 Так и быть
05 Девочка хочет секса
06 Пять минут на любовь
07 Quanto Costa
08 Мари полюбила Хуана
09Ёлки-палки
10 Он меня провожал
11 Знаешь
12 Стихи в метро
13 Скучаю
14 Я такая
15 Никто
16 Мелом (Remix)
17 Что ты делаешь со мной
18 Quanto Costa (live)
19 Мелом (live)
20 Знаешь (live)
21 Мари полюбила Хуана (live)
22 Над моей землей
23 Последний раз
24 Рома (live)
25 Mix (live)
26 MegaMix

Общее
Формат: MPEG-PS
Общий поток: 5573 Кбит/сек

Видео
Идентификатор: 224 (0xE0)
Формат: MPEG Video
Версия формата: Version 2
Профиль формата: Main@Main
Параметр BVOP формата: Да
Параметр матрицы формата: По умолчанию
Параметры GOP формата: M=3, N=13
Вид битрейта: Переменный
Битрейт: 5015 Кбит/сек
Номинальный битрейт: 9008 Кбит/сек
Ширина: 720 пикс.
Высота: 576 пикс.
Соотношение сторон: 4:3
Частота кадров: 25,000 кадр/сек
Стандарт вещания: PAL
Цветовое пространство: YUV
Подвыборка цветности: 4:2:0
Битовая глубина: 8 бит
Тип развёртки: Прогрессивная
Метод сжатия: С потерями
Бит/(Пиксели*Кадры): 0.484
Размер потока: 921 Мбайт (90%)

Аудио
Идентификатор: 128 (0x80)
Формат: AC-3
Формат/Информация: Audio Coding 3
Расширение режима: CM (complete main)
Вид битрейта: Постоянный
Битрейт: 448 Кбит/сек
Канал(ы): 6 канала(ов)
Расположение каналов: Front: L C R, Side: L R, LFE
Частота: 48,0 КГц
Битовая глубина: 16 бит
Метод сжатия: С потерями
Размер потока: 82,3 Мбайт (8%)













Поделиться:




реклама партнёра


Вернуться к началу
 Профиль  
 
   Похожие торренты   Автор   Торрент   Размер 
В этой теме нет новых непрочитанных сообщений. Бурито feat. Ёлка - Ты знаешь [клип] [2014, Поп, WEB-Rip 1080p | 60 fps]

Nickolas3435

26 | 3

129.3 МБ

В этой теме нет новых непрочитанных сообщений. Ты знаешь мою тайну / Мечта афериста / Humraaz [Мюзикл, боевик, триллер, драма, 2002] DVDRip, Mvo

salma3

11 | 5

2.05 ГБ

В этой теме нет новых непрочитанных сообщений. Противостояние / The One [фантастика, боевик, триллер, 2001] DVD5, Dub+Avo+Sub

salma3

16 | 5

4.36 ГБ

В этой теме нет новых непрочитанных сообщений. Распутницы / Absolument Fabuleux (Габриэль Агион) [2001, комедия, DVD5] mvo

Nickolas3435

3 | 2

4.36 ГБ

В этой теме нет новых непрочитанных сообщений. 2001 маньяк / 2001 Maniacs [Ужасы, комедия, ремейк, 2005] BDRip 1080p, Dub+Sub

salma3

22 | 1

8.41 ГБ

В этой теме нет новых непрочитанных сообщений. 2001 маньяк / 2001 Maniacs [Ужасы, комедия, ремейк, 2005] BDRip 720p, Dub+Sub

salma3

8 | 2

4.84 ГБ

В этой теме нет новых непрочитанных сообщений. Тайны Смолвиля / Smallville [S01-10] [фантастика, драма, мелодрама, приключения, 2001-2011] WEB-DLRip, DVDRip, HDRip, Mvo [СТС]

salma3

83 | 206

79.92 ГБ


Начать новую тему Ответить на тему  [ 1 сообщение ] 




Для Мосгорсуда, Роскомнадзора и рекламодателей:: mosgorsud-torrent[собачка]yandex.ru