Торрент файл
скачать торрент магнет ссылка Добавлен: 08 янв 2012, 11:03
Размер: 3.59 ГБ
Сидеров: 15
Личеров: 9
Автор

СообщениеДобавлено: 08 янв 2012, 11:03 

Не в сети
Зам. Админа
Аватара пользователя
Дата регистрации:
02 дек 2010, 12:39
Спасибо: 12707 / 214
Сообщения: 27959
Пропаганда - Знаешь

Формат: DVD5, DVD Video, MPEG2, AC3
Песня: Знаешь
Жанр: Рор
Продолжительность: 01:34:26
Год выпуска: 2001-2011

Видео: 720х576 (PAL 4:3), 25 fps, MPEG-2, ~5015 kbps avg, 0.484 bit/pixel
Аудио: 48 kHz, AC-3 , 6 ch (Front: L C R, Side: L R, LFE), 448.00 kbps avg

Доп. информация: Первым хитом группы стала песня «Мелом», которая появилась в эфире радиостанции «Европа Плюс» 1 сентября 2001 года. С того времени начинается карьера группы в шоу-бизнесе.За время своего существования «Пропаганда» выпустила 7 полноценных альбомов. Завоевывала первые места ведущих чартов страны и не только. Гастролировала по миру, исполняя свои песни живым вокалом. Некоторые известные песни группы: «Мелом», «Никто», «Кто-то играет в любовь», «5 минут на любовь», «Яй-я», «СуперДетка», «Одни дома» и другие.В 2004 году группа получила премию «Золотой граммофон» за песню «Яй-я»Группа «Пропаганда» сегодня — это Настя Шевченко и Маша Букатарь.
01 Super Dетка
02Яй-я …
03 Мелом
04 Так и быть
05 Девочка хочет секса
06 Пять минут на любовь
07 Quanto Costa
08 Мари полюбила Хуана
09Ёлки-палки
10 Он меня провожал
11 Знаешь
12 Стихи в метро
13 Скучаю
14 Я такая
15 Никто
16 Мелом (Remix)
17 Что ты делаешь со мной
18 Quanto Costa (live)
19 Мелом (live)
20 Знаешь (live)
21 Мари полюбила Хуана (live)
22 Над моей землей
23 Последний раз
24 Рома (live)
25 Mix (live)
26 MegaMix

Общее
Формат: MPEG-PS
Общий поток: 5573 Кбит/сек

Видео
Идентификатор: 224 (0xE0)
Формат: MPEG Video
Версия формата: Version 2
Профиль формата: Main@Main
Параметр BVOP формата: Да
Параметр матрицы формата: По умолчанию
Параметры GOP формата: M=3, N=13
Вид битрейта: Переменный
Битрейт: 5015 Кбит/сек
Номинальный битрейт: 9008 Кбит/сек
Ширина: 720 пикс.
Высота: 576 пикс.
Соотношение сторон: 4:3
Частота кадров: 25,000 кадр/сек
Стандарт вещания: PAL
Цветовое пространство: YUV
Подвыборка цветности: 4:2:0
Битовая глубина: 8 бит
Тип развёртки: Прогрессивная
Метод сжатия: С потерями
Бит/(Пиксели*Кадры): 0.484
Размер потока: 921 Мбайт (90%)

Аудио
Идентификатор: 128 (0x80)
Формат: AC-3
Формат/Информация: Audio Coding 3
Расширение режима: CM (complete main)
Вид битрейта: Постоянный
Битрейт: 448 Кбит/сек
Канал(ы): 6 канала(ов)
Расположение каналов: Front: L C R, Side: L R, LFE
Частота: 48,0 КГц
Битовая глубина: 16 бит
Метод сжатия: С потерями
Размер потока: 82,3 Мбайт (8%)













Поделиться:



Вернуться к началу
 Профиль  
 
   Похожие торренты   Автор   Торрент   Размер 
В этой теме нет новых непрочитанных сообщений. Как из русских делали украинцев: пропаганда и геноцид [2021 г., Документальный, история, факты, расследование, WEBRip 1080p]

zorgi

3 | 1

1.49 ГБ

В этой теме нет новых непрочитанных сообщений. На связи / On the Line [мелодрама, комедия, 2001] DVDRip, Mvo

salma3

1 | 0

1.37 ГБ

В этой теме нет новых непрочитанных сообщений. Belladonna - Поклонение заднице 1 / Ass Worship 1 (2001) DVDRip

zorgi

8 | 1

319.33 МБ

В этой теме нет новых непрочитанных сообщений. Claudia Ricci - Тёмная сторона / Dark Side (2001) DVDRip

zorgi

0 | 0

265.21 МБ

В этой теме нет новых непрочитанных сообщений. Миленькие штучки / Les Jolies Choses [драма, 2001] DVDRip, Mvo

salma3

0 | 0

1.46 ГБ

В этой теме нет новых непрочитанных сообщений. Сердцеедки / Heartbreakers [комедия, мелодрама, криминал, 2001] BDRip 720p, Dub

salma3

0 | 0

11.43 ГБ

В этой теме нет новых непрочитанных сообщений. Slayer - God Hates Us All [Thrash Metal, 2001] FLAC (image+.cue), lossless

Redscarf

11 | 0

324.91 МБ


Начать новую тему Ответить на тему  [ 1 сообщение ] 




Для Мосгорсуда, Роскомнадзора и рекламодателей:: rstracker[собака]yandex.ru
cron