Торрент файл
скачать торрент магнет ссылка Добавлен: 08 янв 2012, 11:03
Размер: 1.48 ГБ
Сидеров: 1
Личеров: 5
Автор

СообщениеДобавлено: 08 янв 2012, 11:03 

Не в сети
Зам. Админа
Аватара пользователя
Дата регистрации:
02 дек 2010, 12:39
Спасибо: 12461 / 214
Сообщения: 27968
Nightwish - Live In Sydney

Формат: CamRip, AVI, XviD, MP3
Песня: Live In Sydney
Жанр: Symphonic Metal
Продолжительность: 01:47:00
Год выпуска: 2008
Видео: MPEG 4 VIDEO, 640*480 (4:3), 25.0 fps, 1770 kbps,0,230 bit/pixel
Аудио: 44,1 khz, MP 3, 2 ch, 192 kbps avg
Доп. информация: Концерт в Энмор Театр, Сидней, Австралия. 01.02.2008 год.
    Треклист

01. Intro, Bye Bye Beautiful
02. Cadence Of Her Last Breath
03. Dark Chest Of Wonders
04. Ever Dream
05. Whoever Brings The Night
06. Amaranth
07. The Islander
08. The Poet And The Pendulum
09. Sacrament Of Wilderness
10. Sahara
11. Nemo
12. 7 Days To The Wolves
13. Wishmaster
14. Wish I Had An Angel
Общее
Полное имя: D:\Video\Nightwish - Sydney, Australia.avi
Формат: AVI
Формат/Информация: Audio Video Interleave
Профиль формата: OpenDML
Размер файла: 1,48 Гбайт
Продолжительность: 1 ч. 47 м.
Общий поток: 1976 Кбит/сек
Программа кодирования: Lavf51.12.1

Видео
Идентификатор: 0
Формат: xvid
Идентификатор кодека: xvid
Продолжительность: 1 ч. 47 м.
Битрейт: 1770 Кбит/сек
Ширина: 640 пикс.
Высота: 480 пикс.
Соотношение сторон: 4:3
Частота кадров: 25,000 кадр/сек
Бит/(Пиксели*Кадры): 0.230
Размер потока: 1,33 Гбайт (90%)

Аудио
Идентификатор: 1
Формат: MPEG Audio
Версия формата: Version 1
Профиль формата: Layer 3
Режим: Joint stereo
Расширение режима: MS Stereo
Идентификатор кодека: 55
Идентификатор кодека/Подсказка: MP3
Продолжительность: 35 м.
Вид битрейта: Постоянный
Битрейт: 192 Кбит/сек
Каналы: 2 канала
Частота: 44,1 КГц
Метод сжатия: С потерями
Размер потока: 49,3 Мбайт (3%)
Выравнивание: Соединение по промежуткам
Продолжительность промежутка: 78мс. (1,95 видеокадра)









[b]Поделиться:




реклама партнёра


Вернуться к началу
 Профиль  
 
   Похожие торренты   Автор   Торрент   Размер 
В этой теме нет новых непрочитанных сообщений. Nightwish - Showtime, Storytime (2CD, Live) [2013, Symphonic Power Metal, MP3]

PriZraK

29 | 3

220.46 МБ

В этой теме нет новых непрочитанных сообщений. Nightwish - Endless Forms Most Beautiful [3CD Earbook Edition] [2015, Power Metal, Symphonic Metal, MP3]

Nickolas3435

233 | 35

515.68 МБ

В этой теме нет новых непрочитанных сообщений. Nightwish - Endless Forms Most Beautiful [3CD Earbook Edition] [2015, Power Metal, Symphonic Metal, FLAC]

Nickolas3435

86 | 9

1.52 ГБ

В этой теме нет новых непрочитанных сообщений. Nightwish - Imaginaerum (Limited Edition) [2011, Symphonic Power Metal, MP3]

PriZraK

33 | 3

340.7 МБ

В этой теме нет новых непрочитанных сообщений. Nightwish - Walking In The Air: The Greatest Ballads [2011, Symphonic Power Metal, MP3]

PriZraK

10 | 3

155.29 МБ

В этой теме нет новых непрочитанных сообщений. Nightwish - The Crow, The Owl And The Dove (Single) [02.2012, Symphonic Power Metal, MP3]

PriZraK

1 | 3

52.61 МБ

В этой теме нет новых непрочитанных сообщений. Nightwish - Imaginaerum (2CD Japanese Edition) [2012, Symphonic Power Metal, MP3]

PriZraK

7 | 2

217.54 МБ


Начать новую тему Ответить на тему  [ 1 сообщение ] 




Для Мосгорсуда, Роскомнадзора и рекламодателей:: mosgorsud-torrent[собачка]yandex.ru