Торрент файл
скачать торрент магнет ссылка Добавлен: 08 янв 2012, 11:00
Размер: 919.52 МБ
Сидеров: 0
Личеров: 5
Автор

СообщениеДобавлено: 08 янв 2012, 11:00 

Не в сети
Зам. Админа
Аватара пользователя
Дата регистрации:
02 дек 2010, 12:39
Спасибо: 12623 / 214
Сообщения: 28012
Overkill - Immortalis/Live At Wacken Open Air

Формат: DVDRip, AVI, XviD, MP3
Песня: Immortalis/Live At Wacken Open Air
Жанр: Thrash Metal
Продолжительность: 00:49:56
Год выпуска: 2007
Видео: MPEG 4 VIDEO, 704*576, (1.222 PAL), 25.0 fps, 2339 kbps,0,231 bit/pixel
Аудио: 44,1 khz, MP 3, 2 ch, 224 kbps avg
Доп. информация: Концерт на фестивале в Wacken. 2 августа 2007 года.
    Состав

Bobby "Blitz" Ellsworth : Vocals
Dave Linsk: Guitar
Ron Lipnicki: Drums
Derek Tailer: Guitar
D.D Verni: Bass
    Треклист

01. Rotten to the Core
02. Elimination
03. Necroshine
04. Thanx for Nothin'
05. Skull and Bones
06. In Union We Stand
07. Walk through Fire
08. Wrecking Crew
09. Old School
10. F*** You
Общее
Полное имя: D:\Video\Overkill - Immortalis.avi
Формат: AVI
Формат/Информация: Audio Video Interleave
Размер файла: 920 Мбайт
Продолжительность: 49 м.
Общий поток: 2575 Кбит/сек
Программа кодирования: Lavf51.12.1

Видео
Идентификатор: 0
Формат: xvid
Идентификатор кодека: xvid
Продолжительность: 49 м.
Битрейт: 2339 Кбит/сек
Ширина: 704 пикс.
Высота: 576 пикс.
Соотношение сторон: 1,222
Частота кадров: 25,000 кадр/сек
Стандарт вещания: PAL
Бит/(Пиксели*Кадры): 0.231
Размер потока: 835 Мбайт (91%)

Аудио
Идентификатор: 1
Формат: MPEG Audio
Версия формата: Version 1
Профиль формата: Layer 3
Режим: Joint stereo
Идентификатор кодека: 55
Идентификатор кодека/Подсказка: MP3
Продолжительность: 49 м.
Вид битрейта: Постоянный
Битрейт: 224 Кбит/сек
Каналы: 2 канала
Частота: 44,1 КГц
Метод сжатия: С потерями
Размер потока: 80,0 Мбайт (9%)
Выравнивание: Соединение по промежуткам
Продолжительность промежутка: 26мс. (0,65 видеокадр)
Библиотека кодирования: LAME3.97








[b]Поделиться:




реклама партнёра


Вернуться к началу
 Профиль  
 
   Похожие торренты   Автор   Торрент   Размер 
В этой теме нет новых непрочитанных сообщений. Убить любой ценой / Overkill [боевик, триллер, 1996] DVDRip, Avo

salma3

74 | 2

1.05 ГБ

В этой теме нет новых непрочитанных сообщений. Многократное уничтожение / Overkill [боевик, триллер, криминал, 1987] DVDRip, Avo

salma3

49 | 5

1.45 ГБ

В этой теме нет новых непрочитанных сообщений. Смерть в эфире / Live! [Драма, черная комедия, 2007] DVDRip-AVC, Dvo

salma3

54 | 12

2.05 ГБ

В этой теме нет новых непрочитанных сообщений. Перелом / Fracture [триллер, драма, криминал, детектив, 2007] WEB-DL 1080p, Dub [Open Matte]

salma3

27 | 7

11.11 ГБ

В этой теме нет новых непрочитанных сообщений. Within Temptation: Let Us Burn - Elements & Hydra Live In Concert [Symphonic Metal, Gothic Rock, Power Metal, 2014] BDRemux 1080i

Dracon

32 | 8

20.63 ГБ

В этой теме нет новых непрочитанных сообщений. Open My Ass / Открой Мою Жопу (LeWood / Evil Angel) [2017 г., All Sex, Gonzo, Anal, DVDRip]

salma3

22 | 7

1.92 ГБ

В этой теме нет новых непрочитанных сообщений. Северный полюс: Открыт на Рождество / Northpole: Open for Christmas [фэнтези, 2015] DVDRip, Dub

salma3

67 | 14

1.36 ГБ


Начать новую тему Ответить на тему  [ 1 сообщение ] 




Для Мосгорсуда, Роскомнадзора и рекламодателей:: mosgorsud-torrent[собачка]yandex.ru