Торрент файл
скачать торрент магнет ссылка Добавлен: 08 янв 2012, 11:00
Размер: 4.18 ГБ
Сидеров: 7
Личеров: 10
Автор

СообщениеДобавлено: 08 янв 2012, 11:00 

Не в сети
Зам. Админа
Аватара пользователя
Дата регистрации:
02 дек 2010, 12:39
Спасибо: 12623 / 214
Сообщения: 28012
Ozzy Osbourne - Goin' Crazy In Argentina

Формат: TVRip, DVD Video, MPEG2, AC3
Песня: Goin' Crazy In Argentina
Жанр: Hard Rock
Продолжительность: 01:32:14
Год выпуска: 2009
Видео: MPEG 2 VIDEO, 720*480, (NTSC 4:3), 29.97 fps, ~5942 kbps avg ,0,574 bit/pixel
Аудио: 48.0 khz, AC-3, 2 ch, 384 kbps avg
Доп. информация: Концерт на Ривер-Плейт Стадионе, Буэнос-Айрес, Аргентина. 30 марта 2008 года.
    Треклист

01. Intro
02. I Don't Wanna Stop
03. Bark At The Moon
04. Suicide Solution
05. Mr. Crowley
06. Not Going Away
07. War Pigs
08. Road To Nowhere
09. Crazy Train
10. Zakk Wylde Solo
11. Iron Man
12. I Don't Know
13. Here For You
14. I Don't Wanna Change The World
15. Mama I'm Coming Home
16. Paranoid
Title: Ozzy Osbourne - Goin Crazy In Argentina
Size: 4.18 Gb ( 4 387 828,00 KBytes ) - DVD-5
Enabled regions: 1, 2, 3, 4, 5, 6, 7, 8

VTS_01 :
Play Length: 00:00:06+00:00:12+01:31:56
Video: NTSC 4:3 (720x480) VBR, Letterboxed
Audio:
English (Dolby AC3, 2 ch)
Subtitles:
English

* Menus Information *

VIDEO_TS Menu
Video:
NTSC 4:3 (720x480) VBR
Letterboxed
English Language Unit :
Title Menu

VTS_01 Menu
Video:
NTSC 4:3 (720x480) VBR
Audio:
Not specified (Dolby AC3, 2 ch)
English Language Unit :
Root Menu
Общее
Полное имя: D:\Torrents\Download\Ozzy Osbourne - Goin Crazy In Argentina\VIDEO_TS\VTS_01_1.VOB
Формат: MPEG-PS
Размер файла: 1000 Мбайт
Продолжительность: 21 м.
Общий поток: 6455 Кбит/сек

Видео
Идентификатор: 224 (0xE0)
Формат: MPEG Video
Версия формата: Version 2
Профиль формата: Main@Main
Параметр BVOP формата: Да
Параметр матрицы формата: По умолчанию
Параметры GOP формата: M=2, N=8
Продолжительность: 21 м.
Вид битрейта: Постоянный
Битрейт: 5942 Кбит/сек
Номинальный битрейт: 8500 Кбит/сек
Ширина: 720 пикс.
Высота: 480 пикс.
Соотношение сторон: 4:3
Частота кадров: 29,970 кадр/сек
Стандарт вещания: NTSC
Цветовое пространство: YUV
Подвыборка цветности: 4:2:0
Битовая глубина: 8 бит
Тип развёртки: Чересстрочная
Порядок развёртки: Нижнее поле первое
Метод сжатия: С потерями
Бит/(Пиксели*Кадры): 0.574
Размер потока: 921 Мбайт (92%)

Аудио
Идентификатор: 128 (0x80)
Формат: AC-3
Формат/Информация: Audio Coding 3
Расширение режима: CM (complete main)
Продолжительность: 2 с. 656 мс.
Вид битрейта: Постоянный
Битрейт: 384 Кбит/сек
Каналы: 2 канала
Расположение каналов: Front: L R
Частота: 48,0 КГц
Битовая глубина: 16 бит
Метод сжатия: С потерями
Размер потока: 125 Кбайт (0%)

Меню










[b]Поделиться:




реклама партнёра


Вернуться к началу
 Профиль  
 
   Похожие торренты   Автор   Торрент   Размер 
В этой теме нет новых непрочитанных сообщений. Ozzy Osbourne - The Ultimate Sin [Remastered] (Hard Rock, Heavy Metal. 2014) MP3

Aleksandr.ru

96 | 9

100.38 МБ

В этой теме нет новых непрочитанных сообщений. Elton John - Wonderful Crazy Night [Deluxe] [2016, Pop-Rock, Soft-Rock, MP3]

salma3

0 | 0

114 МБ

В этой теме нет новых непрочитанных сообщений. Cette fille est folle… de cul / Crazy in the Head, Crazy in the Bed (2005) DVDRip

Dievas

0 | 0

1.33 ГБ

В этой теме нет новых непрочитанных сообщений. На юг / Goin' South [комедия, мелодрама, вестерн, 1978] HDTVRip 1080p, Mvo+Sub

salma3

0 | 0

7.91 ГБ

В этой теме нет новых непрочитанных сообщений. На юг / Goin' South [комедия, криминал, мелодрама, вестерн, 1978] WEB-DL 1080p, Mvo

salma3

10 | 4

11.5 ГБ

В этой теме нет новых непрочитанных сообщений. Сборник - Русский Рок Золотой [2014, Rock, Classic Rock, Soft Rock, Hard Rock, MP3]

Nickolas3435

457 | 26

935.39 МБ

В этой теме нет новых непрочитанных сообщений. Сборник - The Original Rock Meets Classic [2 CD] [2014, Rock, Hard Rock, FLAC]

Nickolas3435

185 | 11

1.05 ГБ


Начать новую тему Ответить на тему  [ 1 сообщение ] 




Для Мосгорсуда, Роскомнадзора и рекламодателей:: mosgorsud-torrent[собачка]yandex.ru