Торрент файл
скачать торрент магнет ссылка Добавлен: 08 янв 2012, 04:38
Размер: 4.36 ГБ
Сидеров: 4
Личеров: 7
Автор

СообщениеДобавлено: 08 янв 2012, 04:38 

Не в сети
Супермодератор
Аватара пользователя
Дата регистрации:
22 май 2010, 11:03
Возраст: 33
Спасибо: 7721 / 13
Сообщения: 49847
Sodom - Lords Of Depravity Part 2 - Disc 2

Формат: DVD5 (сжатый), DVD Video, MPEG 2, AC 3
Песня: Lords Of Depravity Part 2 - Disc 2
Жанр: Thrash Metal
Продолжительность: 01:39:30
Год выпуска: 2010
Видео: MPEG 2 VIDEO, 720*480, (NTSC 16:9), 23.97 fps, ~5222 kbps avg ,0,630 bit/pixel
Аудио #1: 48.0 khz, AC-3, 2 ch, 192 kbps avg
Аудио #2: 48.0 khz, AC-3, 6 ch, 448 kbps avg
Доп. информация: Концерт на фестивале Wacken Open Air - 2007.
    Состав
Tom Angelripper - bass/vocals
Bernd Kost - guitars
Bobby Schottkovski - drums
    Special Guests
Grave Violator
Frank Blackfire
Michael Hoffmann
Andy Brings
Atomic Steiff
    Треклист

01. Intro
02. Blood On Your Lips
03. Wanted Dead
04. City Of God
05. Axis Of Evil
06. Blasphemer
07. Proselytism Real
08. Christ Passion
09. Magic Dragon
10. Tarred And Feathered
11. One Step Over The Line
12. Get What You Deserve
13. Abuse
14. Frozen Screams
15. The Vice Of Killing
16. Napalm In The Morning
17. Sodomy And Lust
18. Ausgebombt
19. The Saw Is The Law
20. Outbreak Of Evil
21. Bombenhagel
22. Outro
    Удалены: предостережение, заставка, интервью, 2 клипа. Видео сжато на 13 процентов.
Title: Disc 2
Size: 4.36 Gb ( 4 571 128,00 KBytes ) - DVD-5
Enabled regions: 1, 2, 3, 4, 5, 6, 7, 8

VTS_01 :
Play Length: 00:00:00
Video: NTSC 16:9 (720x480) VBR, Auto Letterboxed
Audio:
English (Dolby AC3, 2 ch)

VTS_02 :
Play Length: 00:00:00
Video: NTSC 16:9 (720x480) VBR, Auto Letterboxed
Audio:
English (Dolby AC3, 2 ch)

VTS_03 :
Play Length: 01:39:30
Video: NTSC 16:9 (720x480) VBR, Auto Letterboxed
Audio:
English, AC3, 2/0 (L,R) ch, 192 kbps, Delay 0 mSec
English, AC3, 3/2 (L,C,R,SL,SR)+LFE ch, 448 kbps, Delay 0 mSec

VTS_04 :
Play Length: 00:00:07
Video: NTSC 16:9 (720x480) VBR, Auto Letterboxed
Audio:
English (Dolby AC3, 2 ch)
Subtitles:
English

VTS_05 :
Play Length: 00:00:00
Video: NTSC 16:9 (720x480) VBR, Auto Letterboxed
Audio:
English (Dolby AC3, 2 ch)

VTS_06 :
Play Length: 00:00:00
Video: NTSC 16:9 (720x480) VBR, Auto Letterboxed
Audio:
English (Dolby AC3, 2 ch)

* Menus Information *

VIDEO_TS Menu
Video:
NTSC 4:3 (720x480) VBR
Auto Pan&Scan, Auto Letterboxed
English Language Unit :
Title Menu

VTS_01 Menu
Video:
NTSC 16:9 (720x480) VBR
Auto Letterboxed
Audio:
Not specified (Dolby AC3, 2 ch)
English Language Unit :
Root Menu

VTS_02 Menu
Video:
NTSC 4:3 (720x480) VBR
English Language Unit :
Root Menu

VTS_03 Menu
Video:
NTSC 4:3 (720x480) VBR
English Language Unit :
Root Menu

VTS_04 Menu
Video:
NTSC 4:3 (720x480) VBR
English Language Unit :
Root Menu

VTS_05 Menu
Video:
NTSC 4:3 (720x480) VBR
English Language Unit :
Root Menu

VTS_06 Menu
Video:
NTSC 4:3 (720x480) VBR
English Language Unit :
Root Menu
Общее
Полное имя: D:\Torrents\Download\Sodom - Lords Of Depravity Part 2\Disc 2\VIDEO_TS\VTS_03_1.VOB
Формат: MPEG-PS
Размер файла: 1024 Мбайт
Продолжительность: 23 м.
Общий поток: 5981 Кбит/сек

Видео
Идентификатор: 224 (0xE0)
Формат: MPEG Video
Версия формата: Version 2
Профиль формата: Main@Main
Параметр BVOP формата: Да
Параметр матрицы формата: По умолчанию
Параметры GOP формата: M=3, N=12
Продолжительность: 23 м.
Вид битрейта: Переменный
Битрейт: 5222 Кбит/сек
Номинальный битрейт: 7700 Кбит/сек
Ширина: 720 пикс.
Высота: 480 пикс.
Соотношение сторон: 16:9
Частота кадров: 23,976 кадр/сек
Стандарт вещания: NTSC
Цветовое пространство: YUV
Подвыборка цветности: 4:2:0
Битовая глубина: 8 бит
Тип развёртки: Прогрессивная
Порядок развёртки: 2:3 Pulldown
Метод сжатия: С потерями
Бит/(Пиксели*Кадры): 0.630
Размер потока: 894 Мбайт (87%)

Аудио #1
Идентификатор: 128 (0x80)
Формат: AC-3
Формат/Информация: Audio Coding 3
Расширение режима: CM (complete main)
Продолжительность: 23 м.
Вид битрейта: Постоянный
Битрейт: 192 Кбит/сек
Каналы: 2 канала
Расположение каналов: Front: L R
Частота: 48,0 КГц
Битовая глубина: 16 бит
Метод сжатия: С потерями
Размер потока: 32,9 Мбайт (3%)

Аудио #2
Идентификатор: 129 (0x81)
Формат: AC-3
Формат/Информация: Audio Coding 3
Расширение режима: CM (complete main)
Продолжительность: 23 м.
Вид битрейта: Постоянный
Битрейт: 448 Кбит/сек
Каналы: 6 каналов
Расположение каналов: Front: L C R, Side: L R, LFE
Частота: 48,0 КГц
Битовая глубина: 16 бит
Метод сжатия: С потерями
Размер потока: 76,7 Мбайт (7%)

Меню












[b]Поделиться:



Вернуться к началу
 Профиль Отправить личное сообщение  
 
   Похожие торренты   Автор   Торрент   Размер 
В этой теме нет новых непрочитанных сообщений. Traci Lords (Tracie Lords, Tracy Lords) MegaPack (114 роликов) [AllSex, Classic, BigTits] ♥ {Ultimate collection 1984-1986} Самая полная коллекция роликов с юной Трейси Лордс и в хорошем качестве

salma3

25 | 8

12.71 ГБ

В этой теме нет новых непрочитанных сообщений. Сборник клипов - Hard Rock and Metal: Part 4 [Rock, Metal, 2017] DVDRip

salma3

6 | 3

4.19 ГБ

В этой теме нет новых непрочитанных сообщений. Risen 3: Titan Lords [v.1.0] [+3 DLC] [RPG, 3D, 25014] [RePack]

Sykre

0 | 1

4.09 ГБ

В этой теме нет новых непрочитанных сообщений. Traci Lords - Sizzling Suburbia (1985) DVDRip-AVC

salma3

63 | 47

1.4 ГБ

В этой теме нет новых непрочитанных сообщений. Wolcen: Lords of Mayhem [RPG (Rogue/Action), 3D, 3rd Person] [Steam-Rip]

Sykre

5 | 1

8.67 ГБ

В этой теме нет новых непрочитанных сообщений. Lords of Xulima [Turn-based, RPG, Isometric, 2014] [Steam-Rip]

Sykre

0 | 0

1.62 ГБ

В этой теме нет новых непрочитанных сообщений. Castlevania: Lords of Shadow 2 [Action (Slasher), 3D, 3rd Person, 2014] [RePack]

Sykre

2 | 2

5.9 ГБ


Начать новую тему Ответить на тему  [ 1 сообщение ] 




Для Мосгорсуда, Роскомнадзора и рекламодателей:: mosgorsud-torrent[собачка]yandex.ru
cron