Торрент файл
скачать торрент магнет ссылка Добавлен: 08 янв 2012, 04:35
Размер: 4.36 ГБ
Сидеров: 10
Личеров: 5
Автор

СообщениеДобавлено: 08 янв 2012, 04:35 

Не в сети
Супермодератор
Аватара пользователя
Дата регистрации:
22 май 2010, 11:03
Возраст: 32
Спасибо: 7690 / 13
Сообщения: 49871
Сергей Минаев - Пират ХХ века


Формат: DVD5, DVD Video, MPEG2, AC3
Песня: Пират ХХ века
Жанр: Pop
Продолжительность: 01:57:44
Год выпуска: 2007

Видео: 720х576 (PAL 16:9), 25 fps, MPEG-2, ~4806 kbps avg, 0.464 bit/pixel
Аудио: 48 kHz, AC-3 , 2 ch, 192.00 kbps avg

Доп. информация: В самом деле, лет 20 назад всесоюзную славу диск-жокею Сергею Минаеву принесли именно каверы на танцевальные шлягеры того времени: "Братец Луи", "Юра вумэн, Вася мэн", "Шерри бренди", и приблизительно тогда же Сергей начал включать в репертуар диско-стилизации собственного сочинения: "Мини-Макси", "Карина". Спустя 20 лет Минаев наконец осуществил давнюю мечту поклонников и выпустил часть своих работ (правда, в слегка "освежеванных" аранжировках) на диске с "говорящим" названием "Пират ХХ века"...
1.Макарена
2.Смычок и струны
3.Дождь смывает следы
4.Сердце
5.Лучшая песня-шалула
6.Свеча на ветру
7.Карнавал
8.Мини-Макси
9.Орфоэпия
10.Карина
11.Деньги
12.Братец Луи
13.Мы в месте "А-5"
14.Юра-вумэн,Вася-мэн
15.22 притопа 2003
16.Мини-Макси 2004
17.А почему бы и нет
18.Анжелика
19.Попробуй еще раз
20.Машина-жена
21.Часы идут
22.Вы готовы?
23.22 рояля(фильм)
24.2 рояля TV передача
25.Начинается свастика
26.22 притопа
27.Ваучер
28.Борис,борись!

Общее
Формат: MPEG-PS
Общий поток: 5100 Кбит/сек

Видео
Идентификатор: 224 (0xE0)
Формат: MPEG Video
Версия формата: Version 2
Профиль формата: Main@Main
Параметр BVOP формата: Да
Параметр матрицы формата: По умолчанию
Вид битрейта: Переменный
Битрейт: 4806 Кбит/сек
Номинальный битрейт: 8000 Кбит/сек
Ширина: 720 пикс.
Высота: 576 пикс.
Соотношение сторон: 16:9
Частота кадров: 25,000 кадр/сек
Стандарт вещания: PAL
Цветовое пространство: YUV
Подвыборка цветности: 4:2:0
Битовая глубина: 8 бит
Тип развёртки: Чересстрочная
Порядок развёртки: Нижнее поле первое
Метод сжатия: С потерями
Бит/(Пиксели*Кадры): 0.464
Размер потока: 965 Мбайт (94%)

Аудио
Идентификатор: 128 (0x80)
Формат: AC-3
Формат/Информация: Audio Coding 3
Расширение режима: CM (complete main)
Вид битрейта: Постоянный
Битрейт: 192 Кбит/сек
Канал(ы): 2 канала(ов)
Расположение каналов: Front: L R
Частота: 48,0 КГц
Битовая глубина: 16 бит
Метод сжатия: С потерями
Задержка видео: 61 мс.
Размер потока: 38,5 Мбайт (4%)











Поделиться:




реклама партнёра


Вернуться к началу
 Профиль Отправить личное сообщение  
 
   Похожие торренты   Автор   Торрент   Размер 
В этой теме нет новых непрочитанных сообщений. Принцесса Лебедь: Пират или принцесса? / The Swan Princess: Princess Tomorrow, Pirate Today! [Мультфильм, семейный, 2016] WEB-DLRip, Mvo [iTunes]

salma3

141 | 98

1.37 ГБ

В этой теме нет новых непрочитанных сообщений. Принцесса Лебедь: Пират или принцесса? / The Swan Princess: Princess Tomorrow, Pirate Today! [Мультфильм, семейный, 2016] WEB-DL 720p, Mvo [iTunes]

salma3

590 | 117

2.51 ГБ

В этой теме нет новых непрочитанных сообщений. Сборник - 1000 Разных Групп & ВИА ХХ Века Vol.06 (2017) MP3

salma3

86 | 51

1.36 ГБ

В этой теме нет новых непрочитанных сообщений. Золотая магия XXI века в Крокус Сити Холле [2016, ТВ-шоу, HDTVRip]

marya111

0 | 0

1020.46 МБ

В этой теме нет новых непрочитанных сообщений. Женщины ХХ века / 20th Century Women [драма, комедия, 2016] WEBDLRip, Mvo

salma3

206 | 29

1.37 ГБ

В этой теме нет новых непрочитанных сообщений. Сборник - 1000 Разных Групп & ВИА ХХ Века Vol.03 [Pop, Rock, Electronic, 2017] MP3 / 320 kpbs

salma3

117 | 47

1.67 ГБ

В этой теме нет новых непрочитанных сообщений. Сборник - 1000 Разных Групп & ВИА ХХ Века Vol.04 [Pop, Rock, Electronic, 2017] MP3 / 320 kpbs

salma3

127 | 46

1.5 ГБ


Начать новую тему Ответить на тему  [ 1 сообщение ] 




Для Мосгорсуда, Роскомнадзора и рекламодателей:: mosgorsud-torrent[собачка]yandex.ru