Торрент файл
скачать торрент магнет ссылка Добавлен: 08 янв 2012, 04:34
Размер: 3.69 ГБ
Сидеров: 4
Личеров: 9
Автор

СообщениеДобавлено: 08 янв 2012, 04:34 

Не в сети
Супермодератор
Аватара пользователя
Дата регистрации:
22 май 2010, 11:03
Возраст: 32
Спасибо: 7670 / 13
Сообщения: 49894
Venom - Black Metal/The 7 th Date Of Hell

Формат: DVD5, DVD Video, MPEG 2, AC 3
Песня: Black Metal/The 7 th Date Of Hell
Жанр: Black Metal
Продолжительность: 01:10:53
Год выпуска: 2009
Видео: MPEG 2 VIDEO, 720*480 (NTSC 4:3), 29.97 fps, ~7038 kbps avg ,0,679 bit/pixel
Аудио: 48,0 khz, AC-3, 2 ch, 192 kbps avg
Доп. информация: Бонус DVD к переизданию альбома "Black Metal". Концерт состоявшийся 1 июня 1984 года. в Hammersmith Odeon, London.
    Треклист
01. Intro
02. Leave Me in Hell
03. Countess Bathory
04. Die Hard
05. 7 Gates of Hell
06. Cronos Bass Solo
07. Buried Alive
08. Don't Burn the Witch
09. In Nomine Satanas
10. Welcome to Hell
11. Warhead
12. Stand Up (& Be Continued)
13. Mantas Guitar Solo
14. Bloodlust
15. Credits

01. Bloodlust (Promo Video)
02. Nightmare (Promo Video)
03. Witching Hour (Promo Video)
Title: Venom - Black Metal
Size: 3.69 Gb ( 3 864 216,00 KBytes ) - DVD-5
Enabled regions: 1, 2, 3, 4, 5, 6, 7, 8

VTS_01 :
Play Length: 00:00:00+00:00:13+00:57:16+00:03:15+00:04:55+00:05:14
Video: NTSC 4:3 (720x480) VBR
Audio:
English, AC3, 2/0 (L,R) ch, 192 kbps, Delay -45 mSec

* Menus Information *

VIDEO_TS Menu
Video:
NTSC 4:3 (720x480) VBR
English Language Unit :
Title Menu

VTS_01 Menu
Video:
NTSC 4:3 (720x480) VBR
Audio:
Not specified (Dolby AC3, 2 ch)
English Language Unit :
Root Menu
Общее
Полное имя: D:\Torrents\Download\Venom - Black Metal\VIDEO_TS\VTS_01_1.VOB
Формат: MPEG-PS
Размер файла: 1024 Мбайт
Продолжительность: 19 м.
Общий поток: 7377 Кбит/сек

Видео
Идентификатор: 224 (0xE0)
Формат: MPEG Video
Версия формата: Version 2
Профиль формата: Main@Main
Параметр BVOP формата: Да
Параметр матрицы формата: По умолчанию
Продолжительность: 19 м.
Вид битрейта: Переменный
Битрейт: 7038 Кбит/сек
Номинальный битрейт: 9000 Кбит/сек
Ширина: 720 пикс.
Высота: 480 пикс.
Соотношение сторон: 4:3
Частота кадров: 29,970 кадр/сек
Стандарт вещания: NTSC
Цветовое пространство: YUV
Подвыборка цветности: 4:2:0
Битовая глубина: 8 бит
Тип развёртки: Прогрессивная
Метод сжатия: С потерями
Бит/(Пиксели*Кадры): 0.679
Размер потока: 977 Мбайт (95%)

Аудио
Идентификатор: 128 (0x80)
Формат: AC-3
Формат/Информация: Audio Coding 3
Расширение режима: CM (complete main)
Продолжительность: 19 м.
Вид битрейта: Постоянный
Битрейт: 192 Кбит/сек
Каналы: 2 канала
Расположение каналов: Front: L R
Частота: 48,0 КГц
Битовая глубина: 16 бит
Метод сжатия: С потерями
Задержка видео: -45 мс.
Размер потока: 26,7 Мбайт (3%)

Меню









[b]Поделиться:




реклама партнёра


Вернуться к началу
 Профиль Отправить личное сообщение  
 
   Похожие торренты   Автор   Торрент   Размер 
В этой теме нет новых непрочитанных сообщений. VA - A Tribute To Venom [2001, Thrash Metal, Black Metal, Speed Metal, MP3]

PriZraK

3 | 3

117.4 МБ

В этой теме нет новых непрочитанных сообщений. Samael - A Decade In Hell (9CD Box Set Remasted) [2010, Black Metal , Industrial Metal , Heavy Metal , MP3]

PriZraK

0 | 1

901.31 МБ

В этой теме нет новых непрочитанных сообщений. Deafheaven - Roads To Judah [2011, Metal, Black Metal, Atmospheric Black Metal, MP3]

PriZraK

0 | 1

70.76 МБ

В этой теме нет новых непрочитанных сообщений. VA - Britannia Infernus: A History Of British Occult And Black Metal (2CDs) [2002, Heavy,Thrash,Black Metal, MP3]

PriZraK

1 | 1

343.82 МБ

В этой теме нет новых непрочитанных сообщений. Black Label Society - Catacombs Of The Black Vatican (Japanese Edition) [2014, Heavy Metal, Southern Metal, MP3]

PriZraK

3 | 2

264.93 МБ

В этой теме нет новых непрочитанных сообщений. Black Label Society - Catacombs of the Black Vatican (Deluxe Edition) [2014, Heavy Metal, Southern Metal, MP3]

PriZraK

3 | 2

123.93 МБ

В этой теме нет новых непрочитанных сообщений. Shade Empire - Omega Arcane [2013, Black Industrial, Melodic Death Metal, Sympho Black Metal, MP3]

PriZraK

2 | 2

171.22 МБ


Начать новую тему Ответить на тему  [ 1 сообщение ] 




Для Мосгорсуда, Роскомнадзора и рекламодателей:: mosgorsud-torrent[собачка]yandex.ru