Торрент файл
скачать торрент магнет ссылка Добавлен: 08 янв 2012, 04:34
Размер: 3.69 ГБ
Сидеров: 4
Личеров: 9
Автор

СообщениеДобавлено: 08 янв 2012, 04:34 

Не в сети
Супермодератор
Аватара пользователя
Дата регистрации:
22 май 2010, 11:03
Возраст: 32
Спасибо: 7693 / 13
Сообщения: 49871
Venom - Black Metal/The 7 th Date Of Hell

Формат: DVD5, DVD Video, MPEG 2, AC 3
Песня: Black Metal/The 7 th Date Of Hell
Жанр: Black Metal
Продолжительность: 01:10:53
Год выпуска: 2009
Видео: MPEG 2 VIDEO, 720*480 (NTSC 4:3), 29.97 fps, ~7038 kbps avg ,0,679 bit/pixel
Аудио: 48,0 khz, AC-3, 2 ch, 192 kbps avg
Доп. информация: Бонус DVD к переизданию альбома "Black Metal". Концерт состоявшийся 1 июня 1984 года. в Hammersmith Odeon, London.
    Треклист
01. Intro
02. Leave Me in Hell
03. Countess Bathory
04. Die Hard
05. 7 Gates of Hell
06. Cronos Bass Solo
07. Buried Alive
08. Don't Burn the Witch
09. In Nomine Satanas
10. Welcome to Hell
11. Warhead
12. Stand Up (& Be Continued)
13. Mantas Guitar Solo
14. Bloodlust
15. Credits

01. Bloodlust (Promo Video)
02. Nightmare (Promo Video)
03. Witching Hour (Promo Video)
Title: Venom - Black Metal
Size: 3.69 Gb ( 3 864 216,00 KBytes ) - DVD-5
Enabled regions: 1, 2, 3, 4, 5, 6, 7, 8

VTS_01 :
Play Length: 00:00:00+00:00:13+00:57:16+00:03:15+00:04:55+00:05:14
Video: NTSC 4:3 (720x480) VBR
Audio:
English, AC3, 2/0 (L,R) ch, 192 kbps, Delay -45 mSec

* Menus Information *

VIDEO_TS Menu
Video:
NTSC 4:3 (720x480) VBR
English Language Unit :
Title Menu

VTS_01 Menu
Video:
NTSC 4:3 (720x480) VBR
Audio:
Not specified (Dolby AC3, 2 ch)
English Language Unit :
Root Menu
Общее
Полное имя: D:\Torrents\Download\Venom - Black Metal\VIDEO_TS\VTS_01_1.VOB
Формат: MPEG-PS
Размер файла: 1024 Мбайт
Продолжительность: 19 м.
Общий поток: 7377 Кбит/сек

Видео
Идентификатор: 224 (0xE0)
Формат: MPEG Video
Версия формата: Version 2
Профиль формата: Main@Main
Параметр BVOP формата: Да
Параметр матрицы формата: По умолчанию
Продолжительность: 19 м.
Вид битрейта: Переменный
Битрейт: 7038 Кбит/сек
Номинальный битрейт: 9000 Кбит/сек
Ширина: 720 пикс.
Высота: 480 пикс.
Соотношение сторон: 4:3
Частота кадров: 29,970 кадр/сек
Стандарт вещания: NTSC
Цветовое пространство: YUV
Подвыборка цветности: 4:2:0
Битовая глубина: 8 бит
Тип развёртки: Прогрессивная
Метод сжатия: С потерями
Бит/(Пиксели*Кадры): 0.679
Размер потока: 977 Мбайт (95%)

Аудио
Идентификатор: 128 (0x80)
Формат: AC-3
Формат/Информация: Audio Coding 3
Расширение режима: CM (complete main)
Продолжительность: 19 м.
Вид битрейта: Постоянный
Битрейт: 192 Кбит/сек
Каналы: 2 канала
Расположение каналов: Front: L R
Частота: 48,0 КГц
Битовая глубина: 16 бит
Метод сжатия: С потерями
Задержка видео: -45 мс.
Размер потока: 26,7 Мбайт (3%)

Меню









[b]Поделиться:




реклама партнёра


Вернуться к началу
 Профиль Отправить личное сообщение  
 
   Похожие торренты   Автор   Торрент   Размер 
В этой теме нет новых непрочитанных сообщений. Сборник клипов - Monsters of Metal Vol. 10 [2016, Black Metal, Death Metal, Gothic, WEBRip]

salma3

181 | 14

7.01 ГБ

В этой теме нет новых непрочитанных сообщений. [JulesJordan.com] Abella Danger (Abella Danger's Ass Has A Date With Mandingo's 14 Inch Big Black Cock) [2017 г., Anal, Ass To Mouth, Big Butts, Big Cocks, Black, Blowjobs, Brunettes, Deep Throat,Interracial, Natural, Swallowing,

salma3

30 | 10

2.07 ГБ

В этой теме нет новых непрочитанных сообщений. [Black] Blackalicious Booty #2 / Чёрнопрекрасные задницы #2 (DVSX) [2009 г., All Sex, Anal, Black, DVDRip]

max77777

12 | 5

692.84 МБ

В этой теме нет новых непрочитанных сообщений. [Black] Naughty Black Housewives 4 / Непослушные Чёрные Домохозяйки 4 (L.T., Elegant Angel) [2017 г., Affairs & Love Triangles, Black, Gonzo, Wives, DVDRip]

salma3

20 | 7

1.52 ГБ

В этой теме нет новых непрочитанных сообщений. [Black] Office Freaks # 4 / Офисные Наркоманы # 4 (Bishop, West Coast) [2009 г., All Sex, Black, DVDRip]

salma3

2 | 1

697.11 МБ

В этой теме нет новых непрочитанных сообщений. [Black] Black Girlfriends / Черные подружки (El Greco, Ultra Hard / New Breed) [2007 г., Black, All Girl, Lesbian, Pussy Licking, Toys, Strapon, DVDRip]

max77777

4 | 0

1.36 ГБ

В этой теме нет новых непрочитанных сообщений. [BrazzersExxtra.com / Brazzers.com] Anya Ivy - A Daring First Date (06.07.2017) [Big Naturals, Big Tits, Black Hair, Ebony, Natural Tits]

salma3

14 | 4

423.61 МБ


Начать новую тему Ответить на тему  [ 1 сообщение ] 




Для Мосгорсуда, Роскомнадзора и рекламодателей:: mosgorsud-torrent[собачка]yandex.ru