Торрент файл
скачать торрент магнет ссылка Добавлен: 08 янв 2012, 04:29
Размер: 2.57 ГБ
Сидеров: 14
Личеров: 5
Автор

СообщениеДобавлено: 08 янв 2012, 04:29 

Не в сети
Супермодератор
Аватара пользователя
Дата регистрации:
22 май 2010, 11:03
Возраст: 32
Спасибо: 7690 / 13
Сообщения: 49871
W.A.S.P. - Live At The Lyceum, London


Формат: DVD5, DVD Video, MPEG 2, AC 3,PCM
Песня: Live At The Lyceum, London
Жанр: Heavy Metal
Продолжительность: 00:57:35
Год выпуска: 1984
Видео: MPEG 2 VIDEO, 704*480 (NTSC 4:3), Меню - 720*480, 29.97 fps, ~4239 kbps avg , 0,419 bit/pixel
Аудио #1: 48.0 khz, AC-3, 2 ch, 256 kbps avg
Аудио #2: 48.0 khz, PCM, 2 ch, 1536 kbps avg
Доп. информация: Концерт в Лондоне, 24 октября 1984 года.
    Состав
Blackie Lawless - bass, vocals
Chris Holmes - guitar
Randy Piper - guitar
Steve Riley - drums
    Треклист
01. On Your Knees
02. The Flame
03. Hellion
04. L.O.V.E. Machine
05. Sleeping (In the Fire)
06. Tormentor
07. School Daze
08. The Torture Never Stops
09. I Wanna Be Somebody
10. Animal (F... Like a Beast)
Title: W.A.S.P. - Live At The Lyceum
Size: 2.57 Gb ( 2 695 560,00 KBytes ) - DVD-5
Enabled regions: 1, 2, 3, 4, 5, 6, 7, 8

VTS_01 :
Play Length: 00:57:25+00:00:10
Video: NTSC 4:3 (704x480) VBR
Audio:
English, AC3, 2/0 (L,R) ch, 256 kbps, Delay 0 mSec
English, LPCM, Delay = 0 mSec

* Menus Information *

VIDEO_TS Menu
Video:
NTSC 4:3 (720x480) VBR
English Language Unit :
Title Menu

VTS_01 Menu
Video:
NTSC 4:3 (720x480) VBR
Audio:
Not specified (Dolby AC3, 2 ch)
English Language Unit :
Root Menu
Общее
Полное имя: D:\Torrents\Download\W.A.S.P. - Live At The Lyceum\VIDEO_TS\VTS_01_1.VOB
Формат: MPEG-PS
Размер файла: 954 Мбайт
Продолжительность: 21 м.
Общий поток: 6153 Кбит/сек

Видео
Идентификатор: 224 (0xE0)
Формат: MPEG Video
Версия формата: Version 2
Профиль формата: Main@Main
Параметр BVOP формата: Да
Параметр матрицы формата: По умолчанию
Параметры GOP формата: M=3, N=15
Продолжительность: 21 м.
Вид битрейта: Переменный
Битрейт: 4239 Кбит/сек
Номинальный битрейт: 9555 Кбит/сек
Ширина: 704 пикс.
Высота: 480 пикс.
Соотношение сторон: 4:3
Частота кадров: 29,970 кадр/сек
Стандарт вещания: NTSC
Цветовое пространство: YUV
Подвыборка цветности: 4:2:0
Битовая глубина: 8 бит
Тип развёртки: Чересстрочная
Порядок развёртки: Верхнее поле первое
Метод сжатия: С потерями
Бит/(Пиксели*Кадры): 0.419
Размер потока: 657 Мбайт (69%)

Аудио #1
Идентификатор: 128 (0x80)
Формат: AC-3
Формат/Информация: Audio Coding 3
Расширение режима: CM (complete main)
Продолжительность: 21 м.
Вид битрейта: Постоянный
Битрейт: 256 Кбит/сек
Каналы: 2 канала
Расположение каналов: Front: L R
Частота: 48,0 КГц
Битовая глубина: 16 бит
Метод сжатия: С потерями
Задержка видео: -66 мс.
Размер потока: 39,7 Мбайт (4%)

Аудио #2
Идентификатор: 161 (0xA1)
Формат: PCM
Параметр Endianness формата: Big
Параметр Sign формата: Signed
Режим смешивания: DVD-Video
Продолжительность: 21 м.
Вид битрейта: Постоянный
Битрейт: 1536 Кбит/сек
Каналы: 2 канала
Расположение каналов: Front: L R
Частота: 48,0 КГц
Битовая глубина: 16 бит
Задержка видео: -66 мс.
Размер потока: 238 Мбайт (25%)

Текст
Идентификатор: 224 (0xE0)-DVD-2
Формат: EIA-608
Режим смешивания: DVD-Video
Режим смешивания, доп. информаци : Muxed in Video #1
Размер потока: 0,00 байт (0%)

Меню










[b]Поделиться:




реклама партнёра


Вернуться к началу
 Профиль Отправить личное сообщение  
 
   Похожие торренты   Автор   Торрент   Размер 
В этой теме нет новых непрочитанных сообщений. VA - Heavy Metal: Louder Than Life [2015, Hard Rock, Melodic Heavy Metal, Heavy Metal, MP3]

Nickolas3435

0 | 272

2.43 ГБ

В этой теме нет новых непрочитанных сообщений. [HardX.com] London Keyes (All Anal For London / 12.05.17.) [2017, Gonzo, Anal, 1080p]

salma3

14 | 5

1.69 ГБ

В этой теме нет новых непрочитанных сообщений. [HardX.com] London Keyes (All Anal For London / 12.05.17.) [2017, Gonzo, Anal, 400p]

salma3

38 | 13

329.65 МБ

В этой теме нет новых непрочитанных сообщений. London Keyes / London Keyes Gets Deep Anal (2015) HD 720p

Dile-1

22 | 77

373.99 МБ

В этой теме нет новых непрочитанных сообщений. [AmateurAllure.com] Layla London (Layla London POV, Busty Babe Swallows TWO Big Loads in Stunning 4K / 2017-09-08) [2017 г., Teen, Deep Throat, Blowjob, Handjob, Swallow, POV, Hardcore, All Sex, 2160p]

salma3

15 | 5

4.16 ГБ

В этой теме нет новых непрочитанных сообщений. Accept - Heavy Ballads (Heavy Metal. 2015) MP3

Aleksandr.ru

403 | 36

363.25 МБ

В этой теме нет новых непрочитанных сообщений. Within Temptation: Let Us Burn - Elements & Hydra Live In Concert [Symphonic Metal, Gothic Rock, Power Metal, 2014] BDRemux 1080i

Dracon

32 | 8

20.63 ГБ


Начать новую тему Ответить на тему  [ 1 сообщение ] 




Для Мосгорсуда, Роскомнадзора и рекламодателей:: mosgorsud-torrent[собачка]yandex.ru